Ссылка на приватное зеркало нашего сайта всего за 1$. Внимание количество ограничено!!!

2 сезон

iTunes

1 сезон

1

2 сезон

2 сезон

iTunes

1 сезон

RePack

30

Ultimate

ВАЖНО

ИГРА 18+

pack

RePack

MK11
pack

Забери бонус

RePack

jed

!!Акция!!

Alien_Rage

RePack

fifa19

RePack

Assassins Creed: Odyssey

RePack

NEED FOR SPEED™ PAYBACK

4 сезон

9 сезон

Бесстыжие 9 сезон

Все сериалы

все сериалы на PB.wtf

RePack

FAR CRY 5
  

Сирена / Siren / Сезон: 1 / Серии: 1-10 из 10 (Ник Копус, Джей Карас, Скотт Чарльз Стюарт) [2018, Фэнтези, драма, WEB-DL 720p] DUB [Амедиа] pb.wtf

Сирена через торрент pb.wtf

Размер: 11.16 GB | Добавлен: 2 года 5 мес. назад | Торрент скачан:45 раз
Скачать  

31-03-2018 11:54 Сирена Скачать торрент  

Сирена / SirenГод выпуска: 2018
Страна: США
Жанр: Фэнтези, драма
Продолжительность: ~ 00:43:00 серия
Перевод: Дублированный | Amedia
Субтитры: Английские

Режиссер: Ник Копус, Джей Карас, Скотт Чарльз Стюарт

rating

В ролях:

Элайн Пауэлл, Фола Эванс-Экинбола, Сибонгиле Мламбо, Йен Вердён, Рина Оуэн, Рон Юань, Тэмми Гиллис, Кертис Льюм, Чад Рук, Энтони Харрисон и др.

Описание:

По легенде возле Бристольской бухты когда-то жили русалки. Однажды здесь появляется таинственная зеленоглазая девушка. Кому-то встреча с ней принесет смерть, а для кого-то она приоткроет старые тайны на первый взгляд безобидного провинциального города.

Качество: WEB-DL 720p
Формат: MKV

Видео: ~ 2 900 kbps, 1280x720 (16:9), 23.976 fps
Аудио#1 RUS: AC3, 48 KHz, 2 ch, 192 kbps
Аудио#2 ENG: EAC3, 48 KHz, 6 ch, 640 Кбит/с
скриншот   скриншот   скриншот  

Общее
Уникальный идентификатор : 219371539848878781145236026800708956614 (0xA5096BF814207866B3D9B8AB597EB1C6)
Полное имя : D:\Siren (Season 01) Amedia 720\Siren.S01E01.720p.Amedia.mkv
Формат : Matroska
Версия формата : Version 4 / Version 2
Размер файла : 1,19 Гбайт
Продолжительность : 45 м. 57 с.
Режим общего битрейта : Переменный
Общий поток : 3692 Кбит/сек
Дата кодирования : UTC 2018-03-31 08:13:36
Программа кодирования : mkvmerge v8.3.0 ('Over the Horizon') 64bit
Библиотека кодирования : libebml v1.3.1 + libmatroska v1.4.2

Видео
Идентификатор : 1
Формат : AVC
Формат/Информация : Advanced Video Codec
Профиль формата : High@L3.1
Параметр CABAC формата : Да
Параметр RefFrames формата : 5 кадров
Идентификатор кодека : V_MPEG4/ISO/AVC
Продолжительность : 45 м. 57 с.
Вид битрейта : Переменный
Битрейт : 2858 Кбит/сек
Максимальный битрейт : 4500 Кбит/сек
Ширина : 1280 пикселей
Высота : 720 пикселей
Соотношение сторон : 16:9
Режим частоты кадров : Постоянный
Частота кадров : 23,976 (24000/1001) кадра/сек
Цветовое пространство : YUV
Субдискретизация насыщенности : 4:2:0
Битовая глубина : 8 бит
Тип развёртки : Прогрессивная
Бит/(Пиксели*Кадры) : 0.129
Размер потока : 940 Мбайт (77%)
Язык : English
Default : Да
Forced : Нет
Цветовой диапазон : Limited
Основные цвета : BT.709
Характеристики трансфера : BT.709
Коэффициенты матрицы : BT.709

Аудио #1
Идентификатор : 2
Формат : AC-3
Формат/Информация : Audio Coding 3
Расширение режима : CM (complete main)
Параметр Endianness формата : Big
Идентификатор кодека : A_AC3
Продолжительность : 45 м. 57 с.
Вид битрейта : Постоянный
Битрейт : 192 Кбит/сек
Каналы : 2 канала
Расположение каналов : Front: L R
Частота : 48,0 КГц
Частота кадров : 31,250 кадров/сек (1536 spf)
Метод сжатия : С потерями
Размер потока : 63,1 Мбайт (5%)
Язык : Russian
Default : Да
Forced : Нет

Аудио #2
Идентификатор : 3
Формат : E-AC-3
Формат/Информация : Audio Coding 3
Параметр Endianness формата : Big
Идентификатор кодека : A_EAC3
Продолжительность : 45 м. 57 с.
Вид битрейта : Постоянный
Битрейт : 640 Кбит/сек
Каналы : 6 каналов
Расположение каналов : Front: L C R, Side: L R, LFE
Частота : 48,0 КГц
Частота кадров : 187,500 кадров/сек (256 spf)
Метод сжатия : С потерями
Размер потока : 210 Мбайт (17%)
Язык : English
Default : Нет
Forced : Нет

Текст
Идентификатор : 4
Формат : UTF-8
Идентификатор кодека : S_TEXT/UTF8
Идентификатор кодека/Информация : UTF-8 Plain Text
Продолжительность : 45 м. 32 с.
Битрейт : 53 бит/сек
ElementCount : 698
Размер потока : 17,9 Кбайт (0%)
Язык : English
Default : Нет
Forced : Нет

Когда раздача ведётся путём добавления новых серий, при каждом добавлении создётся новый торрент. Чтобы начать докачку новой серии, пользователям необходимо сделать следующее:
(1) остановить скачивание,
(2) удалить старый торрент у себя из клиента (старые серии удалять не надо),
(3) скачать новый торрент и запустить его у себя в клиенте вместо старого, при этом указать клиенту путь в старую папку, куда и должно происходить скачивание новых серий.
Ваш клиент при этом должен произвести хеширование (проверку) старой папки (если не производит сам - помогите ему сделать это), и будет докачивать только те серии, которых у вас ещё нет. Старые серии при этом не удаляются, а продолжают раздаваться!
Eсли вы уже удалили старые серии, то предотвратить повторную закачку старых серий можно, отжав галочку в соответсвующих местах при запуске нового торрента. По возможности, желательно не удалять старые серии как можно дольше, чтобы релизёр не столько продолжал раздавать старые серии, а смог сконцентрироваться на новых.
pb.wtf



Скачать Сирена через торрент http://i102.fastpic.ru/big/2018/0330/5b/1ff14eae1a0d3d9c6a1bc1d1e3e1cd5b.jpg Скачать фильм Сирена через торрент бесплантно в хорошем качестве Описание: По легенде возле Бристольской бухты когда-то жили русалки. Однажды здесь появляется таинственная зеленоглазая девушка. Кому-то ... 8.2 10 5
Торрент: Зарегистрирован [2018-06-12 09:20] · скачан: 45 раз
Статус: √ проверено
Размер: 11.16 GB
Как cкачать? Как скачать Сирена через торрент | qTorrent

% Раздел Тема Автор DL S | L
Зарубежные сериалы [ 13.16 GB ] Сирена / Siren / Сезон: 3 / Серии: 1-10 из 10 [2020 WEB-DL 720p] MVO [Lostfilm] bober100 Скачать
1 | 0
Зарубежные сериалы [ 13.16 GB ] Сирена / Siren / Сезон: 3 / Серии: 1-10 из 10 [2020 WEB-DL 720p] MVO [AlexFilm] bober100 Скачать
1 | 1
Зарубежные сериалы [ 46.98 GB ] Сирена / Siren / Сезон: 2 / Серии: 1-16 из 16 [2019 WEB-DL 1080p] DUB [Кириллица] bober100 Скачать
1 | 0
Зарубежные сериалы [ 31.87 GB ] Сирена / Siren / Сезон 1 / Серии 1-10 из 10 [2018 WEB-DL 1080p] MVO [TVShows] bober100 Скачать
1 | 0
Зарубежные сериалы [ 11.57 GB ] Сирена / Siren / Сезон 1 / Серии 1-10 из 10 [2018 WEB-DL 720p] MVO [TVShows] bober100 Скачать
1 | 0
Зарубежные сериалы [ 45.97 GB ] Сирена / Siren / Сезон: 2 / Серии: 1-16 из 16 [2019 WEB-DL 1080p] [MVO] killermax2013 Скачать
1 | 0
Зарубежные сериалы [ 23.64 GB ] Сирена / Siren / Сезон: 2 / Серии: 1-8 из 10 [2019 WEB-DL 1080p] [MVO] killermax2013 Скачать
1 | 0

28-11-2019 20:33  

Отключить всю рекламу на сайте

    Дорогой пользователь! Огромная просьба, поблагодарите релизера, оцените раздачу и оставьте свои комментарий, если Вы скачали Сирена через торрент бесплатно! Внесите свою лепту в развитие PiratBit!
    Комментировать посты могут только пользователи прошедшие не сложную регистрацию
    Показать сообщения:    

    Сирена через торрент
    Скачать бесплатно Сирена
    Сирена скачать торрент
    Сирена смотреть онлайн
    Cкачать фильм Сирена бесплатно
    Сирена скачать торрент в хорошем качестве
    Сирена смотреть онлайн бесплатно в хорошем качестве


    Вы не можете начинать темы
    Вы не можете отвечать на сообщения
    Вы не можете редактировать свои сообщения
    Вы не можете удалять свои сообщения
    Вы не можете голосовать в опросах
    Вы не можете прикреплять файлы к сообщениям
    Вы можете скачивать файлы