Ссылка на приватное зеркало нашего сайта всего за 1$. Внимание количество ограничено!!!

2 сезон

iTunes

1 сезон

1

iTunes

iTunes

iTunes

1 сезон

RePack

30

ИГРА 18+

pack

ВАЖНО

!!Акция!!

Alien_RageХит недели

RePack

MK11
pack

Забери бонус

RePack

jed

!!Акция!!

Alien_Rage

RePack

fifa19

RePack

Assassins Creed: Odyssey

RePack

NEED FOR SPEED™ PAYBACK

4 сезон

9 сезон

Бесстыжие 9 сезон

Все сериалы

все сериалы на PB.wtf

RePack

FAR CRY 5
  

Поезд судьбы / Серия 1- 4 из 4/ (Андрей Хрулёв) [2018 г., Мелодрама, SATRip] pb.wtf

Поезд судьбы через торрент pb.wtf

Размер: 2.45 GB | Добавлен: 2 года 6 мес. назад | Торрент скачан:98 раз
Скачать  

31-03-2018 12:08 Поезд судьбы Скачать торрент  

Поезд судьбы / Серия 1-4 из 4/
Год выпуска: 2018
Страна: Россия
Жанр: Мелодрама
Продолжительность: 4 х 00:46:00
Субтитры: Нет

Режиссер: Андрей Хрулёв

В ролях: Марина Иванова, Александр Головин, Дмитрий Мухин, Александр Цуркан, Сергей Пукита, Виктория Бурчиц, Людмила Малеева, Юлианна Михневич, Дарья Баранова

Описание: Люся (Марина Иванова) мечтает быть художницей, но пока вынуждена работать уборщицей на железнодорожном вокзале провинциального городка. В нее безнадежно влюблен охранник Федя (Александр Головин) – молодой одинокий отец с маленьким сыном. Но Люся не отвечает на его чувства, она ищет более утонченного и интересного мужчину. И вот однажды судьба сводит Люсю с мужчиной ее мечты. В поезде она знакомится с Максимом (Дмитрий Мухин) – красавцем-искусствоведом из столицы. Люся спасает его и поселяет у себя в квартире, не подозревая о криминальном прошлом своего "прекрасного принца" …

Качество: SATRip
Формат: AVI
Видео кодек: XviD
Аудио кодек: MP3
Видео: 720x400 (1.80:1), 25 fps, XviD build 50 ~1800 kbps
Аудио#1: 48 kHz, MPEG Layer 3, 2 ch, ~128.00 kbps
скриншот   скриншот   скриншот   скриншот  

General
Complete name : H:\релизы.торрентфайл\Poezd.sudby.SATRip.[www.riperam.org]\Poezd.sudby.01.SATRip.[www.riperam.org].avi
Format : AVI
Format/Info : Audio Video Interleave
File size : 645 MiB
Duration : 46mn 34s
Overall bit rate : 1 938 Kbps
Writing application : VirtualDubMod 1.5.10.3 | www.virtualdub-fr.org || (build 2550/release)
Writing library : VirtualDubMod build 2550/release

Video
ID : 0
Format : MPEG-4 Visual
Format profile : Advanced Simple@L5
Format settings, BVOP : 2
Format settings, QPel : No
Format settings, GMC : No warppoints
Format settings, Matrix : Default (H.263)
Codec ID : XVID
Codec ID/Hint : XviD
Duration : 46mn 34s
Bit rate : 1 800 Kbps
Width : 720 pixels
Height : 400 pixels
Display aspect ratio : 16:9
Frame rate : 25.000 fps
Color space : YUV
Chroma subsampling : 4:2:0
Bit depth : 8 bits
Scan type : Progressive
Compression mode : Lossy
Bits/(Pixel*Frame) : 0.250
Stream size : 600 MiB (93%)
Writing library : XviD 1.2.1 (UTC 2008-12-04)

Audio
ID : 1
Format : MPEG Audio
Format version : Version 1
Format profile : Layer 3
Mode : Joint stereo
Mode extension : MS Stereo
Codec ID : 55
Codec ID/Hint : MP3
Duration : 46mn 34s
Bit rate mode : Constant
Bit rate : 128 Kbps
Channel(s) : 2 channels
Sampling rate : 48.0 KHz
Compression mode : Lossy
Stream size : 42.6 MiB (7%)
Alignment : Aligned on interleaves
Interleave, duration : 40 ms (1.00 video frame)
Interleave, preload duration : 504 ms
Writing library : LAME3.99r
Encoding settings : -m j -V 4 -q 9 -lowpass 17 -b 128

Внимание! Раздача ведётся путём добавления новых серий; при каждом добавлении создётся новый торрент. Чтобы начать докачку новой серии, пользователям необходимо сделать следующее:
  • Остановить скачивание,
  • Удалить старый торрент у себя из клиента (старые серии удалять не надо),
  • Скачать новый торрент и запустить его у себя в клиенте вместо старого, при этом указать клиенту путь в старую папку куда и должно происходить скачивание новых серий.
Ваш клиент при этом должен произвести хеширование (проверку) старой папки (если не производит сам - помогите ему сделать это), и будет докачивать только те серии которых у вас ещё нет. Старые серии при этом не удаляются, а продолжают раздаваться!

Eсли вы уже удалили старые серии, то предотвратить повторную закачку старых серий можно, отжав галочку в соответсвующих местах при запуске нового торрента. По возможности, желательно не удалять старые серии как можно дольше чтобы релизёр не столько продолжал раздавать старые серии, а смог сконцентрироваться на новых.
pb.wtf



Скачать Поезд судьбы через торрент http://i99.fastpic.ru/big/2018/0331/42/6c8777f6a25bab5d0dfbdfcb9dca0c42.jpg Скачать фильм Поезд судьбы через торрент бесплантно в хорошем качестве Описание: Люся (Марина Иванова) мечтает быть художницей, но пока вынуждена работать уборщицей на железнодорожном вокзале провинциального ... 10 10 2
Торрент: Зарегистрирован [2018-03-31 14:51] · скачан: 98 раз
Статус: √ проверено
Размер: 2.45 GB
Как cкачать? Как скачать Поезд судьбы через торрент | qTorrent

28-11-2019 20:33  

Отключить всю рекламу на сайте

31-03-2018 14:52 Поезд судьбы Скачать торрент  

Добавил 2-4 серии.pb.wtf



    Дорогой пользователь! Огромная просьба, поблагодарите релизера, оцените раздачу и оставьте свои комментарий, если Вы скачали Поезд судьбы через торрент бесплатно! Внесите свою лепту в развитие PiratBit!
    Комментировать посты могут только пользователи прошедшие не сложную регистрацию
    Показать сообщения:    

    Поезд судьбы через торрент
    Скачать бесплатно Поезд судьбы
    Поезд судьбы скачать торрент
    Поезд судьбы смотреть онлайн
    Cкачать фильм Поезд судьбы бесплатно
    Поезд судьбы скачать торрент в хорошем качестве
    Поезд судьбы смотреть онлайн бесплатно в хорошем качестве


    Вы не можете начинать темы
    Вы не можете отвечать на сообщения
    Вы не можете редактировать свои сообщения
    Вы не можете удалять свои сообщения
    Вы не можете голосовать в опросах
    Вы не можете прикреплять файлы к сообщениям
    Вы можете скачивать файлы