Ссылка на приватное зеркало всего за 1$. Внимание количество ограничено!!!

OK

1+1

iTunes

мы

OK

1

WEB-DLRip

Джокер

Пифагор

Ведьмак / The Witcher сериал

iTunes

ПШазам

ОК

Оно 2

iTunes

30
pack

Вам бонус

ВАЖНО

!!Акция!!

Alien_RageХит недели

RePack

Resident Evil 21

ИГРА 18+

pack

RePack

jed

RePack

fifa19

RePack

Assassins Creed: Odyssey

RePack

NEED FOR SPEED™ PAYBACK

4 сезон

9 сезон

Бесстыжие 9 сезон

Все сериалы

все сериалы на PB.wtf

RePack

FAR CRY 5
  

Хороший католик / The Good Catholic (Пол Шолберг) [2017, драма, комедия, BDRip 720p] MVO ["Синема УС"] pb.wtf

Хороший католик через торрент pb.wtf

Размер: 4.42 GB | Добавлен: 1 год 9 мес. назад | Торрент скачан:10 раз
Скачать  

31-03-2018 13:02 Хороший католик Скачать торрент  

Хороший католик / The Good CatholicГод выпуска: 2017
Страна: США
Жанр: драма, комедия
Продолжительность: 01:39:32
Перевод: Любительский (многоголосый) | "Синема УС"
Субтитры: отсутствуют

Режиссер: Пол Шолберг

rating

В ролях: Захари Спайсер, Ренн Шмидт, Дэнни Гловер, Джон К. МакГинли, Аль Миро

Описание: Больше всего в жизни Дэниел любил свою работу священника в небольшом городке. А потом встретил Джейн. Да поможет ему Господь.

Качество: BDRip 720p
Формат: MKV

Видео: MPEG-4 AVC, 5912 Kбит/с, 1280x672
Аудио#1: AC3, 2 ch, 448 Кбит/с
скриншот  скриншот  скриншот  

Общее
Уникальный идентификатор : 181981147350920132583678343214627701063 (0x88E84B4A1E54E7A284F55D1CCEEA4147)
Полное имя : D:\The.Good.Catholic.2017.P.BDRip.72Op_KOSHARA.mkv
Формат : Matroska
Версия формата : Version 2
Размер файла : 4,42 Гбайт
Продолжительность : 1 ч. 39 м.
Режим общего битрейта : Переменный
Общий поток : 6362 Кбит/сек
Дата кодирования : UTC 2018-03-30 04:43:51
Программа кодирования : mkvmerge v8.3.0 ('Over the Horizon') 64bit
Библиотека кодирования : libebml v1.3.1 + libmatroska v1.4.2

Видео
Идентификатор : 1
Формат : AVC
Формат/Информация : Advanced Video Codec
Профиль формата : High@L4.1
Параметр CABAC формата : Да
Параметр RefFrames формата : 4 кадра
Идентификатор кодека : V_MPEG4/ISO/AVC
Продолжительность : 1 ч. 39 м.
Вид битрейта : Переменный
Битрейт : 5912 Кбит/сек
Максимальный битрейт : 6700 Кбит/сек
Ширина : 1280 пикселей
Высота : 672 пикселя
Соотношение сторон : 1,905
Режим частоты кадров : Постоянный
Частота кадров : 23,976 (24000/1001) кадра/сек
Стандарт вещания : Component
Цветовое пространство : YUV
Субдискретизация насыщенности : 4:2:0
Битовая глубина : 8 бит
Тип развёртки : Прогрессивная
Бит/(Пиксели*Кадры) : 0.281
Размер потока : 4,02 Гбайт (91%)
Default : Да
Forced : Нет
Цветовой диапазон : Limited
Основные цвета : BT.709
Характеристики трансфера : BT.709
Коэффициенты матрицы : BT.709

Аудио
Идентификатор : 2
Формат : AC-3
Формат/Информация : Audio Coding 3
Расширение режима : CM (complete main)
Параметр Endianness формата : Big
Идентификатор кодека : A_AC3
Продолжительность : 1 ч. 39 м.
Вид битрейта : Постоянный
Битрейт : 448 Кбит/сек
Каналы : 2 канала
Расположение каналов : Front: L R
Частота : 48,0 КГц
Частота кадров : 31,250 кадров/сек (1536 spf)
Метод сжатия : С потерями
Размер потока : 319 Мбайт (7%)
Default : Да
Forced : Нет

pb.wtf



Скачать Хороший католик через торрент http://img12.lostpic.net/2018/03/31/e89a019e2af30c800e8586efe57ac081.jpg Скачать фильм Хороший католик через торрент бесплантно в хорошем качестве Описание: Больше всего в жизни Дэниел любил свою работу священника в небольшом городке. А потом встретил Джейн. Да поможет ему ... 10 10 2
Торрент: Зарегистрирован [2018-03-31 13:02] · скачан: 10 раз
Статус: # сомнительно
Размер: 4.42 GB
Как cкачать? Как скачать Хороший католик через торрент | qTorrent

% Раздел Тема Автор DL S | L
T Фильмы (мультфильмы) cо спонсором показа (Новинки AVI/MKV) [ 1.46 GB ] Хороший католик / The Good Catholic [2017 HDRip] MVO ["Синема УС"] bober100 Скачать
1 | 0

28-11-2019 20:33  

Отключить всю рекламу на сайте

    Дорогой пользователь! Огромная просьба, поблагодарите релизера, оцените раздачу и оставьте свои комментарий, если Вы скачали Хороший католик через торрент бесплатно! Внесите свою лепту в развитие PiratBit!
    Комментировать посты могут только пользователи прошедшие не сложную регистрацию
    Показать сообщения:    

    Хороший католик через торрент
    Скачать бесплатно Хороший католик
    Хороший католик скачать торрент
    Хороший католик смотреть онлайн
    Cкачать фильм Хороший католик бесплатно
    Хороший католик скачать торрент в хорошем качестве
    Хороший католик смотреть онлайн бесплатно в хорошем качестве


    Вы не можете начинать темы
    Вы не можете отвечать на сообщения
    Вы не можете редактировать свои сообщения
    Вы не можете удалять свои сообщения
    Вы не можете голосовать в опросах
    Вы не можете прикреплять файлы к сообщениям
    Вы можете скачивать файлы