Ссылка на приватное зеркало всего за 1$. Внимание количество ограничено!!!

OK

1+1

iTunes

мы

OK

1

WEB-DLRip

Джокер

Пифагор

Ведьмак / The Witcher сериал

iTunes

ПШазам

ОК

Оно 2

iTunes

30
pack

Вам бонус

ВАЖНО

!!Акция!!

Alien_RageХит недели

RePack

Resident Evil 21

ИГРА 18+

pack

RePack

jed

RePack

fifa19

RePack

Assassins Creed: Odyssey

RePack

NEED FOR SPEED™ PAYBACK

4 сезон

9 сезон

Бесстыжие 9 сезон

Все сериалы

все сериалы на PB.wtf

RePack

FAR CRY 5
  

Смерть на Аляске / Sweet Virginia (Джэми М. Дагг) [2017, триллер, драма, BDRip 720p] MVO ["Синема УС"] pb.wtf

Смерть на Аляске через торрент pb.wtf

Размер: 4.38 GB | Добавлен: 1 год 9 мес. назад | Торрент скачан:45 раз
Скачать  

31-03-2018 14:16 Смерть на Аляске Скачать торрент  

Смерть на Аляске / Sweet VirginiaГод выпуска: 2017
Страна: Канада, США
Жанр: триллер, драма
Продолжительность: 01:33:57
Перевод: Любительский (многоголосый) | "Синема УС"
Субтитры: отсутствуют

Режиссер: Джэми М. Дагг

rating

В ролях:

Джон Бернтал, Имоджен Путс, Кристофер Эбботт, Розмари ДеУитт, Джаред Абрахамсон, Дарси Лори, Одесса Янг, Виктория Бидвелл, Джозеф Лайл Тейлор

Описание:

Сэм, бывший чемпион по родео, сейчас ведёт тихую жизнь в богом забытом городке на Аляске, где держит скромный придорожный мотель. Элвуд - молодой человек, заехавший в его отель; между двумя мужчинами, имеющими, как выясняется, общие корни, завязывается дружба. Элвуд, однако, приехал не просто так, и имеет самое прямое отношение к шокирующему преступлению, которое недавно потрясло городок.

Качество: BDRip 720p
Формат: MKV

Видео: 6123 Kb/s, 1280x534
Аудио#1: Русский, (AC3, 2 ch, 448 Кбит/с)
скриншот  скриншот  скриншот  

Общее
Уникальный идентификатор : 214082151794686039747112368235708677595 (0xA10EB900E716A6BE80F3251BBE9FFDDB)
Полное имя : D:\Sweet.Virginia.2017.P.BDRip.72Op_KOSHARA.mkv
Формат : Matroska
Версия формата : Version 2
Размер файла : 4,38 Гбайт
Продолжительность : 1 ч. 35 м.
Режим общего битрейта : Переменный
Общий поток : 6573 Кбит/сек
Дата кодирования : UTC 2018-03-30 04:48:23
Программа кодирования : mkvmerge v8.3.0 ('Over the Horizon') 64bit
Библиотека кодирования : libebml v1.3.1 + libmatroska v1.4.2

Видео
Идентификатор : 1
Формат : AVC
Формат/Информация : Advanced Video Codec
Профиль формата : High@L4.1
Параметр CABAC формата : Да
Параметр RefFrames формата : 4 кадра
Идентификатор кодека : V_MPEG4/ISO/AVC
Продолжительность : 1 ч. 35 м.
Вид битрейта : Переменный
Битрейт : 6123 Кбит/сек
Максимальный битрейт : 6800 Кбит/сек
Ширина : 1280 пикселей
Высота : 534 пикселя
Соотношение сторон : 2,40:1
Режим частоты кадров : Постоянный
Частота кадров : 23,976 (24000/1001) кадра/сек
Стандарт вещания : Component
Цветовое пространство : YUV
Субдискретизация насыщенности : 4:2:0
Битовая глубина : 8 бит
Тип развёртки : Прогрессивная
Бит/(Пиксели*Кадры) : 0.366
Размер потока : 3,99 Гбайт (91%)
Default : Да
Forced : Нет
Цветовой диапазон : Limited
Основные цвета : BT.709
Характеристики трансфера : BT.709
Коэффициенты матрицы : BT.709

Аудио
Идентификатор : 2
Формат : AC-3
Формат/Информация : Audio Coding 3
Расширение режима : CM (complete main)
Параметр Endianness формата : Big
Идентификатор кодека : A_AC3
Продолжительность : 1 ч. 35 м.
Вид битрейта : Постоянный
Битрейт : 448 Кбит/сек
Каналы : 2 канала
Расположение каналов : Front: L R
Частота : 48,0 КГц
Частота кадров : 31,250 кадров/сек (1536 spf)
Метод сжатия : С потерями
Размер потока : 306 Мбайт (7%)
Default : Да
Forced : Нет

pb.wtf



Скачать Смерть на Аляске через торрент http://img12.lostpic.net/2018/03/31/997081b7c3e066c6fd427f6bc0abed01.jpg Скачать фильм Смерть на Аляске через торрент бесплантно в хорошем качестве Описание: Сэм, бывший чемпион по родео, сейчас ведёт тихую жизнь в богом забытом городке на Аляске, где держит скромный придорожный мотель. ... 10 10 3
Торрент: Зарегистрирован [2018-03-31 14:16] · скачан: 45 раз
Статус: T временная
Размер: 4.38 GB
Как cкачать? Как скачать Смерть на Аляске через торрент | qTorrent

% Раздел Тема Автор DL S | L
T Фильмы (мультфильмы) cо спонсором показа (Новинки AVI/MKV) [ 1.37 GB ] Смерть на Аляске / Sweet Virginia [2017 HDRip] MVO ["Синема УС"] bober100 Скачать
1 | 0
T Релизы по Парсеру [Игры, Сериалы и Фильмы и другое...] [ 1.15 GB ] Смерть на Аляске / Sweet Virginia [2017 WEB-DLRip] [MVO] killermax2013 Скачать
1 | 0
T Релизы по Парсеру [Игры, Сериалы и Фильмы и другое...] [ 2.81 GB ] Смерть на Аляске / Sweet Virginia [2017 WEB-DLRip 720p] [MVO] killermax2013 Скачать
1 | 0

28-11-2019 20:33  

Отключить всю рекламу на сайте

    Дорогой пользователь! Огромная просьба, поблагодарите релизера, оцените раздачу и оставьте свои комментарий, если Вы скачали Смерть на Аляске через торрент бесплатно! Внесите свою лепту в развитие PiratBit!
    Комментировать посты могут только пользователи прошедшие не сложную регистрацию
    Показать сообщения:    

    Смерть на Аляске через торрент
    Скачать бесплатно Смерть на Аляске
    Смерть на Аляске скачать торрент
    Смерть на Аляске смотреть онлайн
    Cкачать фильм Смерть на Аляске бесплатно
    Смерть на Аляске скачать торрент в хорошем качестве
    Смерть на Аляске смотреть онлайн бесплатно в хорошем качестве


    Вы не можете начинать темы
    Вы не можете отвечать на сообщения
    Вы не можете редактировать свои сообщения
    Вы не можете удалять свои сообщения
    Вы не можете голосовать в опросах
    Вы не можете прикреплять файлы к сообщениям
    Вы можете скачивать файлы