Ссылка на приватное зеркало всего за 1$. Внимание количество ограничено!!!

OK

1+1

iTunes

мы

OK

1

WEB-DLRip

Джокер

Пифагор

Ведьмак / The Witcher сериал

iTunes

ПШазам

ОК

Оно 2

iTunes

30
pack

Вам бонус

ВАЖНО

!!Акция!!

Alien_RageХит недели

RePack

Resident Evil 21

ИГРА 18+

pack

RePack

jed

RePack

fifa19

RePack

Assassins Creed: Odyssey

RePack

NEED FOR SPEED™ PAYBACK

4 сезон

9 сезон

Бесстыжие 9 сезон

Все сериалы

все сериалы на PB.wtf

RePack

FAR CRY 5
  

Рыцари проклятья / Knights of the Damned (Саймон Уэллс) [2017, ужасы, фэнтези, боевик, BDRip 720p] MVO ["Синема УС"] pb.wtf

Рыцари проклятья через торрент pb.wtf

Размер: 3.99 GB | Добавлен: 1 год 9 мес. назад | Торрент скачан:46 раз
Скачать  

31-03-2018 14:36 Рыцари проклятья Скачать торрент  

Рыцари проклятья / Knights of the DamnedГод выпуска: 2017
Страна: Великобритания
Жанр: ужасы, фэнтези, боевик
Продолжительность: 01:26:02
Перевод: Любительский (многоголосый) | "Синема УС"
Субтитры: отсутствуют

Режиссер: Саймон Уэллс

rating

В ролях:

Росс О Хеннесси, Бен Лойд-Холмс, Сильвио Шимач, Зара Питиан, Андреа Василиу, Адриан Буше, Кейт Мари Дэвис, Ли Куньцзюэ, Джон-Пол Гейтс, Ребекка Дайсон-Смит

Описание:

Король посылает своих лучших рыцарей сразить дракона, напавшего на замок. Во время своего опасного приключения рыцари сталкиваются с коварными сиренами, женщинами-воинами, жаждущими мести, и с непобедимой армией живых мертвецов. Удастся ли им выжить и спасти королевство?

Качество: BDRip 720p
Формат: MKV

Видео: 6185 Kb/s, 1280x544
Аудио#1: Русский, (AC3, 2 ch, 448 Кбит/с)
скриншот  скриншот  скриншот  

Общее
Уникальный идентификатор : 199592158945761615807201421280186523611 (0x96280D32E5405B12AF2A90A04F54DFDB)
Полное имя : D:\Knights.Of.The.Damned.2017.P.BDRip.72Op_KOSHARA.mkv
Формат : Matroska
Версия формата : Version 2
Размер файла : 3,99 Гбайт
Продолжительность : 1 ч. 26 м.
Режим общего битрейта : Переменный
Общий поток : 6635 Кбит/сек
Дата кодирования : UTC 2018-03-30 06:32:51
Программа кодирования : mkvmerge v8.3.0 ('Over the Horizon') 64bit
Библиотека кодирования : libebml v1.3.1 + libmatroska v1.4.2

Видео
Идентификатор : 1
Формат : AVC
Формат/Информация : Advanced Video Codec
Профиль формата : High@L4.1
Параметр CABAC формата : Да
Параметр RefFrames формата : 4 кадра
Идентификатор кодека : V_MPEG4/ISO/AVC
Продолжительность : 1 ч. 26 м.
Вид битрейта : Переменный
Битрейт : 6185 Кбит/сек
Максимальный битрейт : 6800 Кбит/сек
Ширина : 1280 пикселей
Высота : 544 пикселя
Соотношение сторон : 2,35:1
Режим частоты кадров : Постоянный
Частота кадров : 23,976 (24000/1001) кадра/сек
Стандарт вещания : Component
Цветовое пространство : YUV
Субдискретизация насыщенности : 4:2:0
Битовая глубина : 8 бит
Тип развёртки : Прогрессивная
Бит/(Пиксели*Кадры) : 0.363
Размер потока : 3,64 Гбайт (91%)
Default : Да
Forced : Нет
Цветовой диапазон : Limited
Основные цвета : BT.709
Характеристики трансфера : BT.709
Коэффициенты матрицы : BT.709

Аудио
Идентификатор : 2
Формат : AC-3
Формат/Информация : Audio Coding 3
Расширение режима : CM (complete main)
Параметр Endianness формата : Big
Идентификатор кодека : A_AC3
Продолжительность : 1 ч. 26 м.
Вид битрейта : Постоянный
Битрейт : 448 Кбит/сек
Каналы : 2 канала
Расположение каналов : Front: L R
Частота : 48,0 КГц
Частота кадров : 31,250 кадров/сек (1536 spf)
Метод сжатия : С потерями
Размер потока : 276 Мбайт (7%)
Default : Да
Forced : Нет

pb.wtf



Скачать Рыцари проклятья через торрент http://img12.lostpic.net/2018/03/31/f1cca337efaec24147c7311d3a4a1c68.jpg Скачать фильм Рыцари проклятья через торрент бесплантно в хорошем качестве Описание: Король посылает своих лучших рыцарей сразить дракона, напавшего на замок. Во время своего опасного приключения рыцари ... 7.8 10 5
Торрент: Зарегистрирован [2018-03-31 14:36] · скачан: 46 раз
Статус: # сомнительно
Размер: 3.99 GB
Как cкачать? Как скачать Рыцари проклятья через торрент | qTorrent

% Раздел Тема Автор DL S | L
T Фильмы (мультфильмы) cо спонсором показа (Новинки AVI/MKV) [ 1.37 GB ] Рыцари проклятья / Knights of the Damned [2017 HDRip] MVO ["Синема УС"] bober100 Скачать
1 | 0

28-11-2019 20:33  

Отключить всю рекламу на сайте

31-03-2018 14:37 Рыцари проклятья Скачать торрент  

Шлакpb.wtf



01-04-2018 17:57 Рыцари проклятья Скачать торрент  

тв3pb.wtf



    Дорогой пользователь! Огромная просьба, поблагодарите релизера, оцените раздачу и оставьте свои комментарий, если Вы скачали Рыцари проклятья через торрент бесплатно! Внесите свою лепту в развитие PiratBit!
    Комментировать посты могут только пользователи прошедшие не сложную регистрацию
    Показать сообщения:    

    Рыцари проклятья через торрент
    Скачать бесплатно Рыцари проклятья
    Рыцари проклятья скачать торрент
    Рыцари проклятья смотреть онлайн
    Cкачать фильм Рыцари проклятья бесплатно
    Рыцари проклятья скачать торрент в хорошем качестве
    Рыцари проклятья смотреть онлайн бесплатно в хорошем качестве


    Вы не можете начинать темы
    Вы не можете отвечать на сообщения
    Вы не можете редактировать свои сообщения
    Вы не можете удалять свои сообщения
    Вы не можете голосовать в опросах
    Вы не можете прикреплять файлы к сообщениям
    Вы можете скачивать файлы