Ссылка на приватное зеркало всего за 1$. Внимание количество ограничено!!!

OK

1+1

iTunes

мы

OK

1

WEB-DLRip

Джокер

Пифагор

Ведьмак / The Witcher сериал

iTunes

ПШазам

ОК

Оно 2

iTunes

30
pack

Вам бонус

ВАЖНО

!!Акция!!

Alien_RageХит недели

RePack

Resident Evil 21

ИГРА 18+

pack

RePack

jed

RePack

fifa19

RePack

Assassins Creed: Odyssey

RePack

NEED FOR SPEED™ PAYBACK

4 сезон

9 сезон

Бесстыжие 9 сезон

Все сериалы

все сериалы на PB.wtf

RePack

FAR CRY 5
  

Бун: Охотник за головами / Boone: The Bounty Hunter (Роберт Кирбисон) [2017, боевик, BDRip 720p] MVO [@MUZOBOZ@] pb.wtf

Бун: Охотник за головами через торрент pb.wtf

Размер: 4.08 GB | Добавлен: 1 год 9 мес. назад | Торрент скачан:86 раз
Скачать  

31-03-2018 18:15 Бун: Охотник за головами Скачать торрент  

Бун: Охотник за головами / Boone: The Bounty HunterГод выпуска: 2017
Страна: США
Жанр: боевик
Продолжительность: 01:28:14
Перевод: Любительский (многоголосый) | @MUZOBOZ@
Субтитры: отсутствуют

Режиссер: Роберт Кирбисон

rating

В ролях:

Джон Хенниган, Осрик Чау, Спенсер Грэммер, Джонатан Липники, Ричард Тайсон, Джейн Парк Смит, Лесли Фера, Куинтон Джексон, Лоренцо Ламас, Кевин Сорбо

Описание:

Когда популярный охотник за головами из реалити-шоу , Бун, пытается раскрыть наркобарона и его империю, он узнает больше, чем ожидал, и понимает, что правосудие стоит дороже рейтингов.

Качество: BDRip 720p
Формат: MKV

Видео: MPEG-4 AVC, 6167 Кбит/с, 1280x720
Аудио#1: AC3, 2 ch, 448 Кбит/с
скриншот  скриншот  скриншот  

Общее
Уникальный идентификатор : 212914168585866031526438712585654882562 (0xA02DC6FC3D8B441FABF33A94614BD102)
Полное имя : D:\Boone.the.bounty.hunter.2017.P.BDRip.72Op_KOSHARA.mkv
Формат : Matroska
Версия формата : Version 2
Размер файла : 4,08 Гбайт
Продолжительность : 1 ч. 28 м.
Режим общего битрейта : Переменный
Общий поток : 6617 Кбит/сек
Дата кодирования : UTC 2018-03-30 06:28:03
Программа кодирования : mkvmerge v8.3.0 ('Over the Horizon') 64bit
Библиотека кодирования : libebml v1.3.1 + libmatroska v1.4.2

Видео
Идентификатор : 1
Формат : AVC
Формат/Информация : Advanced Video Codec
Профиль формата : High@L4.1
Параметр CABAC формата : Да
Параметр RefFrames формата : 4 кадра
Идентификатор кодека : V_MPEG4/ISO/AVC
Продолжительность : 1 ч. 28 м.
Вид битрейта : Переменный
Битрейт : 6167 Кбит/сек
Максимальный битрейт : 6800 Кбит/сек
Ширина : 1280 пикселей
Высота : 720 пикселей
Соотношение сторон : 16:9
Режим частоты кадров : Постоянный
Частота кадров : 23,976 (24000/1001) кадра/сек
Стандарт вещания : Component
Цветовое пространство : YUV
Субдискретизация насыщенности : 4:2:0
Битовая глубина : 8 бит
Тип развёртки : Прогрессивная
Бит/(Пиксели*Кадры) : 0.273
Размер потока : 3,72 Гбайт (91%)
Default : Да
Forced : Нет
Цветовой диапазон : Limited
Основные цвета : BT.709
Характеристики трансфера : BT.709
Коэффициенты матрицы : BT.709

Аудио
Идентификатор : 2
Формат : AC-3
Формат/Информация : Audio Coding 3
Расширение режима : CM (complete main)
Параметр Endianness формата : Big
Идентификатор кодека : A_AC3
Продолжительность : 1 ч. 28 м.
Вид битрейта : Постоянный
Битрейт : 448 Кбит/сек
Каналы : 2 канала
Расположение каналов : Front: L R
Частота : 48,0 КГц
Частота кадров : 31,250 кадров/сек (1536 spf)
Метод сжатия : С потерями
Размер потока : 283 Мбайт (7%)
Default : Да
Forced : Нет

pb.wtf



Скачать Бун: Охотник за головами через торрент http://img12.lostpic.net/2018/03/31/b47eb1b44deb1ad589b54d138537d231.jpg Скачать фильм Бун: Охотник за головами через торрент бесплантно в хорошем качестве Описание: Когда популярный охотник за головами из реалити-шоу , Бун, пытается раскрыть наркобарона и его империю, он узнает больше, чем ... 8.2 10 10
Info! Золотая раздача, скачанное не засчитывается.
Торрент: Зарегистрирован [2018-03-31 18:15] · скачан: 86 раз
Статус: # сомнительно
Размер: 4.08 GB
Как cкачать? Как скачать Бун: Охотник за головами через торрент | qTorrent

% Раздел Тема Автор DL S | L
T Фильмы (мультфильмы) cо спонсором показа (Новинки AVI/MKV) [ 1.37 GB ] Бун: Охотник за головами / Boone: The Bounty Hunter [2017 HDRip] MVO [@MUZOBOZ@] bober100 Скачать
2 | 0

28-11-2019 20:33  

Отключить всю рекламу на сайте

    Дорогой пользователь! Огромная просьба, поблагодарите релизера, оцените раздачу и оставьте свои комментарий, если Вы скачали Бун: Охотник за головами через торрент бесплатно! Внесите свою лепту в развитие PiratBit!
    Комментировать посты могут только пользователи прошедшие не сложную регистрацию
    Показать сообщения:    

    Бун: Охотник за головами через торрент
    Скачать бесплатно Бун: Охотник за головами
    Бун: Охотник за головами скачать торрент
    Бун: Охотник за головами смотреть онлайн
    Cкачать фильм Бун: Охотник за головами бесплатно
    Бун: Охотник за головами скачать торрент в хорошем качестве
    Бун: Охотник за головами смотреть онлайн бесплатно в хорошем качестве


    Вы не можете начинать темы
    Вы не можете отвечать на сообщения
    Вы не можете редактировать свои сообщения
    Вы не можете удалять свои сообщения
    Вы не можете голосовать в опросах
    Вы не можете прикреплять файлы к сообщениям
    Вы можете скачивать файлы