Marvel's Avengers Deluxe Edition (супер цена) 159р. Внимание количество ограничено!!!

2 сезон

iTunes

iTunes

1

iTunes

iTunes

iTunes

WEBRip

iTunes

30
pack

Новость дня

ВАЖНО

!!Акция!!

Alien_RageХит недели

RePack

Horizon Zero Dawn

ИГРА 18+

pack

RePack

jed

!!Акция!!

Alien_Rage

RePack

fifa19

RePack

Assassins Creed: Odyssey

RePack

NEED FOR SPEED™ PAYBACK

4 сезон

9 сезон

Бесстыжие 9 сезон

Все сериалы

все сериалы на PB.wtf

RePack

FAR CRY 5
  

Атлантический рубеж 2 / Atlantic Rim 2 (Джаред Кон) [2018, фантастика, боевик, BDRip 720p] MVO ["Синема УС"] pb.wtf

Атлантический рубеж 2 через торрент pb.wtf

Размер: 3.96 GB | Добавлен: 2 года 5 мес. назад | Торрент скачан:178 раз
Скачать  

31-03-2018 18:27 Атлантический рубеж 2 Скачать торрент  

Атлантический рубеж 2 / Atlantic Rim 2Год выпуска: 2018
Страна: США
Жанр: фантастика, боевик
Продолжительность: 01:27:57
Перевод: Любительский (многоголосый) | "Синема УС"

Режиссер: Джаред Кон

rating

В ролях:

Джаред Кон, Линдси Элстон, Дженна Эннс, Лиз Феннинг, Джозеф Майкл Харрис, Хави Израиль, Тэмми Кляйн, Майкл Марсель

Описание:

На Лос-Анджелес нападают гигантские монстры - на этот раз люди более подготовлены и лучше вооружены, но и пришельцы тоже...

Качество: BDRip 720p
Формат: MKV

Видео: 5994 Kb/s, 1280x720
Аудио#1: Русский, (AC3, 2 ch, 448 Кбит/с)
скриншот  скриншот  скриншот  

Общее
Уникальный идентификатор : 211660661971799683775828740756421343540 (0x9F3C5C5671AC97C98BE11E9928FDF934)
Полное имя : D:\Atlantic.Rim.2.2O18.P.BDRip.72Op_KOSHARA.mkv
Формат : Matroska
Версия формата : Version 2
Размер файла : 3,96 Гбайт
Продолжительность : 1 ч. 27 м.
Режим общего битрейта : Переменный
Общий поток : 6444 Кбит/сек
Дата кодирования : UTC 2018-03-29 20:20:03
Программа кодирования : mkvmerge v8.3.0 ('Over the Horizon') 64bit
Библиотека кодирования : libebml v1.3.1 + libmatroska v1.4.2

Видео
Идентификатор : 1
Формат : AVC
Формат/Информация : Advanced Video Codec
Профиль формата : High@L4.1
Параметр CABAC формата : Да
Параметр RefFrames формата : 4 кадра
Идентификатор кодека : V_MPEG4/ISO/AVC
Продолжительность : 1 ч. 27 м.
Вид битрейта : Переменный
Битрейт : 5994 Кбит/сек
Максимальный битрейт : 6700 Кбит/сек
Ширина : 1280 пикселей
Высота : 720 пикселей
Соотношение сторон : 16:9
Режим частоты кадров : Постоянный
Частота кадров : 23,976 (24000/1001) кадра/сек
Стандарт вещания : Component
Цветовое пространство : YUV
Субдискретизация насыщенности : 4:2:0
Битовая глубина : 8 бит
Тип развёртки : Прогрессивная
Бит/(Пиксели*Кадры) : 0.266
Размер потока : 3,60 Гбайт (91%)
Default : Да
Forced : Нет
Цветовой диапазон : Limited
Основные цвета : BT.709
Характеристики трансфера : BT.709
Коэффициенты матрицы : BT.709

Аудио
Идентификатор : 2
Формат : AC-3
Формат/Информация : Audio Coding 3
Расширение режима : CM (complete main)
Параметр Endianness формата : Big
Идентификатор кодека : A_AC3
Продолжительность : 1 ч. 27 м.
Вид битрейта : Постоянный
Битрейт : 448 Кбит/сек
Каналы : 2 канала
Расположение каналов : Front: L R
Частота : 48,0 КГц
Частота кадров : 31,250 кадров/сек (1536 spf)
Метод сжатия : С потерями
Размер потока : 282 Мбайт (7%)
Default : Да
Forced : Нет

pb.wtf



Скачать Атлантический рубеж 2 через торрент http://img11.lostpic.net/2018/03/19/f69d0359991b24b8c5ae523539c548f0.jpg Скачать фильм Атлантический рубеж 2 через торрент бесплантно в хорошем качестве Описание: На Лос-Анджелес нападают гигантские монстры - на этот раз люди более подготовлены и лучше вооружены, но и пришельцы ... 7.2 10 12
Торрент: Зарегистрирован [2018-03-31 18:27] · скачан: 178 раз
Статус: # сомнительно
Размер: 3.96 GB
Как cкачать? Как скачать Атлантический рубеж 2 через торрент | qTorrent

% Раздел Тема Автор DL S | L
T Фильмы (мультфильмы) cо спонсором показа (Новинки AVI/MKV) [ 1.37 GB ] Атлантический рубеж 2 / Atlantic Rim 2 [2018 HDRip] MVO ["Синема УС"] bober100 Скачать
1 | 0

28-11-2019 20:33  

Отключить всю рекламу на сайте

31-03-2018 18:58 Атлантический рубеж 2 Скачать торрент  

pb.wtf



31-03-2018 18:59 Атлантический рубеж 2 Скачать торрент  

ща скачаю-отпишу

полный бред какой то-не то что ждут многие,пародия какая то pb.wtf





Последний раз редактировалось: pulyaneo (2018-03-31 19:31), всего редактировалось 1 раз

31-03-2018 19:11 Атлантический рубеж 2 Скачать торрент  

Слабоватый рейтинг, мягко говоря. Качну, заценю сам. Первый на четвёрочку пошёл из пяти.pb.wtf



31-03-2018 19:27 Атлантический рубеж 2 Скачать торрент  

Тихоокеанский же назывался или нас снова наобманули?pb.wtf



31-03-2018 19:57 Атлантический рубеж 2 Скачать торрент  

pontifique, NIKLAINER, Вы чё реально *цензура* или такие тонкие тролли? Ясен пень это азайлумовские какахи. Такое как раз под стать казлине. pb.wtf



31-03-2018 20:48 Атлантический рубеж 2 Скачать торрент  

NIKLAINER писал(а):

Тихоокеанский же назывался или нас снова наобманули?

Это другой фильмpb.wtf



31-03-2018 20:55 Атлантический рубеж 2 Скачать торрент  

Хах! Оказывается в 2013 была первая часть с рейтингом примерно таким же.pb.wtf



01-04-2018 05:44 Атлантический рубеж 2 Скачать торрент  

Полный КРАХ! я на RIM повёлся.pb.wtf



01-04-2018 06:08 Атлантический рубеж 2 Скачать торрент  

Это другой фильм и как по мне этот полное ГМОpb.wtf



01-04-2018 06:58 Атлантический рубеж 2 Скачать торрент  

Наржался до половины фильма и выключил потому что устал....такая редкая хреньььpb.wtf



01-04-2018 16:46 Атлантический рубеж 2 Скачать торрент  

Так же тупанул и на созвучье скачал, включил данный шлак, о боже, что за дерьмище.pb.wtf



    Дорогой пользователь! Огромная просьба, поблагодарите релизера, оцените раздачу и оставьте свои комментарий, если Вы скачали Атлантический рубеж 2 через торрент бесплатно! Внесите свою лепту в развитие PiratBit!
    Комментировать посты могут только пользователи прошедшие не сложную регистрацию
    Показать сообщения:    

    Атлантический рубеж 2 через торрент
    Скачать бесплатно Атлантический рубеж 2
    Атлантический рубеж 2 скачать торрент
    Атлантический рубеж 2 смотреть онлайн
    Cкачать фильм Атлантический рубеж 2 бесплатно
    Атлантический рубеж 2 скачать торрент в хорошем качестве
    Атлантический рубеж 2 смотреть онлайн бесплатно в хорошем качестве


    Вы не можете начинать темы
    Вы не можете отвечать на сообщения
    Вы не можете редактировать свои сообщения
    Вы не можете удалять свои сообщения
    Вы не можете голосовать в опросах
    Вы не можете прикреплять файлы к сообщениям
    Вы можете скачивать файлы