Ссылка на приватное зеркало нашего сайта всего за 1$. Внимание количество ограничено!!!

2 сезон

iTunes

1 сезон

1

2 сезон

2 сезон

iTunes

1 сезон

RePack

30

Ultimate

ВАЖНО

ИГРА 18+

pack

RePack

MK11
pack

Забери бонус

RePack

jed

!!Акция!!

Alien_Rage

RePack

fifa19

RePack

Assassins Creed: Odyssey

RePack

NEED FOR SPEED™ PAYBACK

4 сезон

9 сезон

Бесстыжие 9 сезон

Все сериалы

все сериалы на PB.wtf

RePack

FAR CRY 5
  

911 служба спасения / 9-1-1 / Сезон: 1 / Серии: 1-10 из 10 (Брэдли Букер) [2018, Драма, WEB-DL 720p] MVO [Jaskier] pb.wtf

911 служба спасения через торрент pb.wtf

Размер: 11.69 GB | Добавлен: 2 года 7 мес. назад | Торрент скачан:36 раз
Скачать  

01-04-2018 00:23 911 служба спасения Скачать торрент  

911 служба спасения/ 9-1-1Год выпуска: 2018
Страна: США
Жанр: Драма
Продолжительность: ~ 00:50:00
Перевод: Профессиональный многоголосый | Jaskier
Субтитры: английские

Режиссер: Брэдли Букер

rating

В ролях:

Анджела Бассетт, Конни Бриттон, Корина Мессиа, Бриэль Барбаска, Рэйчел Бритаг, Лондон Чешир, Адина ДеСоуза, Алекс Лойназ

Описание:

Сериал расскажет о работе полицейских, «Скорой помощи» и пожарной службы. Все они выполняют свой долг, часто рискуя жизнью и попадая в самые пугающие и шокирующие ситуации. Смысл их ежедневной работы состоит в охране безопасности улиц и помощи всем, кто в ней нуждается. Полицейские, пожарные и парамедики работают бок о бок в жестких условиях большого города. Эти экстренные службы должны стараться балансировать, спасая тех, кто находится в наиболее уязвимом положении, и при этом решать проблемы в их собственной жизни.

Качество: WEB-DL 720p
Формат: MKV
Видео кодек: H.264
Аудио кодек: AC3

Видео:~ 3000 kbps, 1280x720, 23.976 fps
Аудио#1 Rus: AC3, 6 ch, 384 kbps
Аудио#2 Eng: AC3, 6 ch, 384 kbps


скриншот   скриншот   скриншот  

Общее
Уникальный идентификатор : 207755066581332449148806498907350362213 (0x9C4C2B9E339D9FDDB2C3EB9DC4CBE865)
Полное имя : D:\Яскъер\9-1-1. Season 1 (WEB-DL l 720p l Jaskier)\9-1-1.S01E01.720p.WEB-DL.DD5.1.H.264-Jaskier.mkv
Формат : Matroska
Версия формата : Version 2
Размер файла : 1,23 Гбайт
Продолжительность : 46 м. 22 с.
Режим общего битрейта : Переменный
Общий поток : 3789 Кбит/сек
Дата кодирования : UTC 2018-01-21 20:30:08
Программа кодирования : mkvmerge v7.8.0 ('River Man') 32bit built on Apr 3 2015 12:11:22
Библиотека кодирования : libebml v1.3.1 + libmatroska v1.4.2

Видео
Идентификатор : 1
Формат : AVC
Формат/Информация : Advanced Video Codec
Профиль формата : High@L3.1
Настройки формата : CABAC / 5 Ref Frames
Параметр CABAC формата : Да
Параметр RefFrames формата : 5 кадров
Идентификатор кодека : V_MPEG4/ISO/AVC
Продолжительность : 46 м. 22 с.
Вид битрейта : Переменный
Битрейт : 2945 Кбит/сек
Максимальный битрейт : 4500 Кбит/сек
Ширина : 1280 пикселей
Высота : 720 пикселей
Соотношение сторон : 16:9
Режим частоты кадров : Постоянный
Частота кадров : 23,976 (24000/1001) кадра/сек
Цветовое пространство : YUV
Субдискретизация насыщенности : 4:2:0
Битовая глубина : 8 бит
Тип развёртки : Прогрессивная
Бит/(Пиксели*Кадры) : 0.133
Размер потока : 977 Мбайт (78%)
Язык : English
Default : Да
Forced : Нет
Цветовой диапазон : Limited
Основные цвета : BT.709
Характеристики трансфера : BT.709
Коэффициенты матрицы : BT.709

Аудио #1
Идентификатор : 2
Формат : AC-3
Формат/Информация : Audio Coding 3
Идентификатор кодека : A_AC3
Продолжительность : 46 м. 22 с.
Вид битрейта : Постоянный
Битрейт : 384 Кбит/сек
Каналы : 6 каналов
Расположение каналов : Front: L C R, Side: L R, LFE
Частота : 48,0 КГц
Частота кадров : 31,250 кадров/сек (1536 SPF)
Битовая глубина : 16 бит
Метод сжатия : С потерями
Размер потока : 127 Мбайт (10%)
Заголовок : Jaskier
Язык : Russian
ServiceKind/String : Complete Main
Default : Да
Forced : Нет

Аудио #2
Идентификатор : 3
Формат : AC-3
Формат/Информация : Audio Coding 3
Идентификатор кодека : A_AC3
Продолжительность : 46 м. 22 с.
Вид битрейта : Постоянный
Битрейт : 384 Кбит/сек
Каналы : 6 каналов
Расположение каналов : Front: L C R, Side: L R, LFE
Частота : 48,0 КГц
Частота кадров : 31,250 кадров/сек (1536 SPF)
Битовая глубина : 16 бит
Метод сжатия : С потерями
Размер потока : 127 Мбайт (10%)
Язык : English
ServiceKind/String : Complete Main
Default : Нет
Forced : Нет

Текст
Идентификатор : 4
Формат : UTF-8
Идентификатор кодека : S_TEXT/UTF8
Идентификатор кодека/Информация : UTF-8 Plain Text
Язык : English
Default : Нет
Forced : Нет

pb.wtf



Скачать 911 служба спасения через торрент http://i103.fastpic.ru/big/2018/0113/7e/fdd6effe0cf3b096df5270f25caa8a7e.png Скачать фильм 911 служба спасения через торрент бесплантно в хорошем качестве Описание: Сериал расскажет о работе полицейских, «Скорой помощи» и пожарной службы. Все они выполняют свой долг, часто рискуя жизнью и ... 10 10 3
Info! Серебряная раздача, засчитывается только 50% скачанного.
Торрент: Зарегистрирован [2018-04-01 00:23] · скачан: 36 раз
Статус: √ проверено
Размер: 11.69 GB
Как cкачать? Как скачать 911 служба спасения через торрент | qTorrent

% Раздел Тема Автор DL S | L
Зарубежные сериалы [ 31.45 GB ] 911 служба спасения / 9-1-1 / Сезон: 3 / Серии: 1-10 из 18 [2019 WEB-DL 1080p] MVO [TVShows] bober100 Скачать
1 | 0
Зарубежные сериалы [ 44.16 GB ] 911 служба спасения / 9-1-1 / Сезон: 3 / Серии: 1-18 из 18 [2019 WEB-DL 1080p] MVO [Lostfilm] bober100 Скачать
1 | 0
Зарубежные сериалы [ 9.56 GB ] 911 служба спасения / 9-1-1 / Сезон: 3 / Серии: 1-3 из 18 [2019 WEB-DL 1080p] MVO [HDRezka studio] bober100 Скачать
1 | 0
Зарубежные сериалы [ 47.45 GB ] 911 служба спасения / 9-1-1 / Сезон: 2 / Серии: 1-18 из 18 [2018 WEB-DL 1080p] MVO [TVShows] bober100 Скачать
1 | 0
Зарубежные сериалы [ 32.99 GB ] 911 служба спасения / 9-1-1 / Сезон: 2 / Серии: 1-12 из 16 [2018 WEB-DL 1080p] MVO [Jaskier] bober100 Скачать
1 | 0

28-11-2019 20:33  

Отключить всю рекламу на сайте

    Дорогой пользователь! Огромная просьба, поблагодарите релизера, оцените раздачу и оставьте свои комментарий, если Вы скачали 911 служба спасения через торрент бесплатно! Внесите свою лепту в развитие PiratBit!
    Комментировать посты могут только пользователи прошедшие не сложную регистрацию
    Показать сообщения:    

    911 служба спасения через торрент
    Скачать бесплатно 911 служба спасения
    911 служба спасения скачать торрент
    911 служба спасения смотреть онлайн
    Cкачать фильм 911 служба спасения бесплатно
    911 служба спасения скачать торрент в хорошем качестве
    911 служба спасения смотреть онлайн бесплатно в хорошем качестве


    Вы не можете начинать темы
    Вы не можете отвечать на сообщения
    Вы не можете редактировать свои сообщения
    Вы не можете удалять свои сообщения
    Вы не можете голосовать в опросах
    Вы не можете прикреплять файлы к сообщениям
    Вы можете скачивать файлы