Ссылка на приватное зеркало всего за 1$. Внимание количество ограничено!!!

OK

1+1

iTunes

мы

OK

1

WEB-DLRip

Джокер

Пифагор

Ведьмак / The Witcher сериал

iTunes

ПШазам

ОК

Оно 2

iTunes

30
pack

Вам бонус

ВАЖНО

!!Акция!!

Alien_RageХит недели

RePack

Resident Evil 21

ИГРА 18+

pack

RePack

jed

RePack

fifa19

RePack

Assassins Creed: Odyssey

RePack

NEED FOR SPEED™ PAYBACK

4 сезон

9 сезон

Бесстыжие 9 сезон

Все сериалы

все сериалы на PB.wtf

RePack

FAR CRY 5
  

Охотник на любовниц / Mistress Hunter (Пенелопа Бюйтенхайс) [2018 г., Триллер, HDTVRip, Любительский (многоголосый) (Синема УС)] pb.wtf

Охотник на любовниц через торрент pb.wtf

Размер: 1.3 GB | Добавлен: 1 год 9 мес. назад | Торрент скачан:65 раз
Скачать  

01-04-2018 03:23 Охотник на любовниц Скачать торрент  

Охотник на любовниц / Mistress Hunter
Год выпуска: 2018
Страна: США
Жанр: Триллер
Продолжительность: 01:23:37
Перевод: Любительский (многоголосый) (Синема УС)
Субтитры: Отсутствуют

Режиссер: Пенелопа Бюйтенхайс

Премьера в мире: 16 марта 2018



В ролях: Лаурали Белл, Мартин Коппинг, Лорен Плакско, Лидия Смотри, Брюс Нозик, Кейтлин Рейган, Хлоя Брукс

Описание: Чтобы собрать улики против неверного мужа и подготовиться к бракоразводному процессу, Джеки нанимает так называемого охотника на любовниц. Но, когда мужа вместе с любовницей находят мёртвыми, охотник испаряется, а Джеки становится главной подозреваемой в двойном убийстве.

Доп. информация: Присутствуют вставки текстовой рекламы

Качество: HDTVRip
Формат: AVI
Видео кодек: XviD
Аудио кодек: AC3
Видео: XviD, 720x400, ~1820 Kbps
Аудио#1: AC-3, 48.0 KHz, 2 ch, 384 Kbps
скриншот   скриншот   скриншот   скриншот  

щее
Полное имя : E:\NNM\Охотник на любовниц\Mistress hunter 2018 HDTVRip.avi
Формат : AVI
Формат/Информация : Audio Video Interleave
Профиль формата : OpenDML
Размер файла : 1,30 Гбайт
Продолжительность : 1 ч. 23 м.
Общий поток : 2217 Кбит/сек

Видео
Идентификатор : 0
Формат : MPEG-4 Visual
Профиль формата : Advanced Simple@L5
Настройки формата : BVOP2
Параметр BVOP формата : 2
Параметр QPel формата : Нет
Параметр GMC формата : Без точки перехода
Параметр матрицы формата : Default (MPEG)
Идентификатор кодека : XVID
Идентификатор кодека/Подсказка : XviD
Продолжительность : 1 ч. 23 м.
Битрейт : 1820 Кбит/сек
Ширина : 720 пикселей
Высота : 400 пикселей
Соотношение сторон : 16:9
Частота кадров : 23,976 (24000/1001) кадра/сек
Цветовое пространство : YUV
Субдискретизация насыщенности : 4:2:0
Битовая глубина : 8 бит
Тип развёртки : Прогрессивная
Метод сжатия : С потерями
Бит/(Пиксели*Кадры) : 0.264
Размер потока : 1,06 Гбайт (82%)
Библиотека кодирования : XviD 1.2.1 (UTC 2008-12-04)

Аудио
Идентификатор : 1
Формат : AC-3
Формат/Информация : Audio Coding 3
Идентификатор кодека : 2000
Продолжительность : 1 ч. 23 м.
Вид битрейта : Постоянный
Битрейт : 384 Кбит/сек
Каналы : 2 канала
Расположение каналов : Front: L R
Частота : 48,0 КГц
Частота кадров : 31,250 кадров/сек (1536 SPF)
Битовая глубина : 16 бит
Метод сжатия : С потерями
Размер потока : 230 Мбайт (17%)
Выравнивание : Соединение по промежуткам
Продолжительность промежутка : 32 мс. (0,77 видеокадр)
ServiceKind/String : Complete Main

pb.wtf



Скачать Охотник на любовниц через торрент http://i103.fastpic.ru/big/2018/0401/8f/f707d0c64b4bb0535434edf06e65cf8f.jpg Скачать фильм Охотник на любовниц через торрент бесплантно в хорошем качестве Описание: Чтобы собрать улики против неверного мужа и подготовиться к бракоразводному процессу, Джеки нанимает так называемого охотника на ... 7 10 4
Торрент: Зарегистрирован [2018-04-01 03:23] · скачан: 65 раз
Статус: T временная
Размер: 1.3 GB
Как cкачать? Как скачать Охотник на любовниц через торрент | qTorrent

28-11-2019 20:33  

Отключить всю рекламу на сайте

    Дорогой пользователь! Огромная просьба, поблагодарите релизера, оцените раздачу и оставьте свои комментарий, если Вы скачали Охотник на любовниц через торрент бесплатно! Внесите свою лепту в развитие PiratBit!
    Комментировать посты могут только пользователи прошедшие не сложную регистрацию
    Показать сообщения:    

    Охотник на любовниц через торрент
    Скачать бесплатно Охотник на любовниц
    Охотник на любовниц скачать торрент
    Охотник на любовниц смотреть онлайн
    Cкачать фильм Охотник на любовниц бесплатно
    Охотник на любовниц скачать торрент в хорошем качестве
    Охотник на любовниц смотреть онлайн бесплатно в хорошем качестве


    Вы не можете начинать темы
    Вы не можете отвечать на сообщения
    Вы не можете редактировать свои сообщения
    Вы не можете удалять свои сообщения
    Вы не можете голосовать в опросах
    Вы не можете прикреплять файлы к сообщениям
    Вы можете скачивать файлы