MEGA SALE -50% FORZA HORIZON 4 ULTIMATE+ВСЕ DLC+ОНЛАЙН всего за 599р. 299 руб. (супер цена). Внимание количество ограничено!!!

iTunes

1+1

iTunes

мы

iTunes

1

iTunes

Чернобыль

iTunes

Ральф против интернета

Лицензия

ПШазам

Лицензия

Игра престолов

Лицензия

30
pack

ВАЖНО

!!Акция!!

Alien_RageХит недели

RePack

Resident Evil 21

ИГРА 18+

pack

RePack

Metro:Exodus

!!Акция!!

Alien_Rage

RePack

fifa19

RePack

Assassins Creed: Odyssey

RePack

NEED FOR SPEED™ PAYBACK

3 сезон

9 сезон

Бесстыжие 9 сезон

Все сериалы

все сериалы на PB.wtf

RePack

FAR CRY 5
Ребята, катастрофически не хватает 7730р. для оплаты серверов за АВГУСТ (всвязи с блокировками трафик упал в 3 раза), 1-2р., выручайте.
  

Как убить соседскую собаку? / How to Kill Your Neighbor's Dog (Майкл Калеснико) [2000 г., Драма, комедия, DVDRip-AVC, Профессиональный (многоголосый)] от ExKinoRay pb.wtf

Как убить соседскую собаку? через торрент pb.wtf

Размер: 2.44 GB | Добавлен: 1 год 5 мес. назад | Торрент скачан:8 раз
Скачать  

01-04-2018 03:43 Как убить соседскую собаку? Скачать торрент  

Как убить соседскую собаку? / How to Kill Your Neighbor's Dog
Год выпуска: 2000
Страна: Германия, США
Жанр: Драма, комедия
Продолжительность: 01:42:49
Перевод: Профессиональный (многоголосый)
Субтитры: Русские

Режиссер: Майкл Калеснико

Бюджет: $7 300 000
Премьера в мире: 16 сентября 2000

rating

В ролях: Кеннет Брана, Робин Райт, Сьюзи Хофтчер, Линн Редгрейв, Джаред Харрис, Питер Ригерт, Дэвид Крамхолц, Джонатон Шек, Кэйтлин Хопкинс, Сьюзи Хоаким

Описание: Комедия о застенчивом драматурге, который в последнее время сам не свой. Он то и дело смолит одну сигарету за другой и переживает кризис в личной жизни. Вдохновение покинуло его в работе, дома его не понимает жена. Дела настолько плохи, что его раздражает буквально все вокруг, даже лай безобидной соседской собаки. Но однажды он знакомится с маленькой девочкой, живущей неподалеку, которая помогает ему взглянуть на мир совсем другими глазами…

Качество: DVDRip-AVC
Формат: MKV
Видео кодек: MPEG4
Аудио кодек: AC3
Видео: MPEG-4 AVC, 2500 Кбит/с, 712x576@1012x576, 25,000 кадров/сек
Аудио#1: Русский (AC3, 6 ch, 448 Кбит/с, 48 КГц)
Аудио#2: Английский (AC3, 6 ch, 448 Кбит/с, 48 КГц)
Релиз от:




raw [info]: 712x576p 64:45 @ 25/1 fps (cfr)
x264 [info]: using SAR=64/45
x264 [info]: using cpu capabilities: MMX2 SSE2Fast LZCNT
x264 [info]: profile High, level 4.1
x264 [info]: frame I:1047 Avg QP:15.72 size: 58691
x264 [info]: frame P:29546 Avg QP:17.99 size: 26960
x264 [info]: frame B:123647 Avg QP:19.42 size: 8653
x264 [info]: consecutive B-frames: 1.3% 1.5% 6.1% 6.1% 6.1% 76.3% 1.6% 0.3% 0.3% 0.1% 0.1% 0.1% 0.0% 0.0% 0.0% 0.0% 0.1%
-----
Общее
Уникальный идентификатор : 239072459000911438718279908570188323081 (0xB3DBAE46BBE484C099BF1B279EE19909)
Полное имя : D:\ExKinoRay\Kak.Ubit.Sosed.Sobaky.2000.DVDRip-AVC.ExKinoRay.mkv
Формат : Matroska
Версия формата : Version 2
Размер файла : 2,44 Гбайт
Продолжительность : 1 ч. 42 м.
Общий поток : 3398 Кбит/сек
Дата кодирования : UTC 2018-03-31 16:17:10
Программа кодирования : mkvmerge v7.8.0 ('River Man') 32bit built on Apr 3 2015 12:11:22
Библиотека кодирования : libebml v1.3.1 + libmatroska v1.4.2

Видео
Идентификатор : 1
Формат : AVC
Формат/Информация : Advanced Video Codec
Профиль формата : High@L4.1
Параметр CABAC формата : Да
Параметр ReFrames формата : 14 кадров
Идентификатор кодека : V_MPEG4/ISO/AVC
Продолжительность : 1 ч. 42 м.
Битрейт : 2500 Кбит/сек
Ширина : 712 пикселей
Высота : 576 пикселей
Соотношение сторон : 16:9
Соотношение сторон в оригинале : 16:9
Режим частоты кадров : Постоянный
Частота кадров : 25,000 кадров/сек
Цветовое пространство : YUV
Субдискретизация насыщенности : 4:2:0
Битовая глубина : 8 бит
Тип развёртки : Прогрессивная
Бит/(Пиксели*Кадры) : 0.244
Размер потока : 1,75 Гбайт (72%)
Библиотека кодирования : x264 core 148 r2638 7599210
Настройки программы : cabac=1 / ref=14 / deblock=1:-2:-2 / analyse=0x3:0x133 / me=umh / subme=10 / psy=1 / psy_rd=1.05:0.15 / mixed_ref=1 / me_range=32 / chroma_me=1 / trellis=2 / 8x8dct=1 / cqm=0 / deadzone=21,11 / fast_pskip=0 / chroma_qp_offset=-3 / threads=4 / lookahead_threads=1 / sliced_threads=0 / nr=0 / decimate=0 / interlaced=0 / bluray_compat=0 / constrained_intra=0 / bframes=16 / b_pyramid=2 / b_adapt=2 / b_bias=0 / direct=3 / weightb=1 / open_gop=0 / weightp=2 / keyint=250 / keyint_min=25 / scenecut=40 / intra_refresh=0 / rc=2pass / mbtree=0 / bitrate=2500 / ratetol=1.0 / qcomp=0.60 / qpmin=0 / qpmax=69 / qpstep=4 / cplxblur=20.0 / qblur=0.5 / ip_ratio=1.40 / pb_ratio=1.30 / aq=1:1.00
Язык : English
Default : Да
Forced : Нет
Цветовой диапазон : Limited
Основные цвета : BT.601 NTSC
Характеристики трансфера : BT.601
Коэффициенты матрицы : BT.601

Аудио #1
Идентификатор : 2
Формат : AC-3
Формат/Информация : Audio Coding 3
Расширение режима : CM (complete main)
Параметр Endianness формата : Big
Идентификатор кодека : A_AC3
Продолжительность : 1 ч. 42 м.
Вид битрейта : Постоянный
Битрейт : 448 Кбит/сек
Каналы : 6 каналов
Расположение каналов : Front: L C R, Side: L R, LFE
Частота : 48,0 КГц
Частота кадров : 31,250 кадров/сек (1536 spf)
Метод сжатия : С потерями
Размер потока : 329 Мбайт (13%)
Язык : Russian
Default : Да
Forced : Нет

Аудио #2
Идентификатор : 3
Формат : AC-3
Формат/Информация : Audio Coding 3
Расширение режима : CM (complete main)
Параметр Endianness формата : Big
Идентификатор кодека : A_AC3
Продолжительность : 1 ч. 42 м.
Вид битрейта : Постоянный
Битрейт : 448 Кбит/сек
Каналы : 6 каналов
Расположение каналов : Front: L C R, Side: L R, LFE
Частота : 48,0 КГц
Частота кадров : 31,250 кадров/сек (1536 spf)
Метод сжатия : С потерями
Размер потока : 329 Мбайт (13%)
Язык : English
Default : Нет
Forced : Нет

Текст
Идентификатор : 4
Формат : UTF-8
Идентификатор кодека : S_TEXT/UTF8
Идентификатор кодека/Информация : UTF-8 Plain Text
Язык : Russian
Default : Да
Forced : Нет

pb.wtf



Скачать Как убить соседскую собаку? через торрент http://c.radikal.ru/c31/1803/b4/0a5b6713276d.jpg Скачать фильм Как убить соседскую собаку? через торрент бесплантно в хорошем качестве Описание: Комедия о застенчивом драматурге, который в последнее время сам не свой. Он то и дело смолит одну сигарету за другой и переживает ... 10 10 1
Info! Золотая раздача, скачанное не засчитывается.
Торрент: Зарегистрирован [2018-04-01 03:43] · скачан: 8 раз
Статус: √ проверено
Размер: 2.44 GB
Как cкачать? Как скачать Как убить соседскую собаку? через торрент | qTorrent


>> Регистрируемся здесь <<






Отзывы и комментарии о схеме читаем и пишем здесь: ---> Отзывы и комментарии о схеме

Новые благодарочки в телеграм довольных пользователей:
скриншот   скриншот   скриншот   скриншот   скриншот

01-04-2018 05:26 Как убить соседскую собаку? Скачать торрент  

Топик был перенесен из форума Оформление раздач (Кино, Видео и ТВ) в форум Фильмы до 2000 г.


schultzpb.wtf



    Дорогой пользователь! Огромная просьба, поблагодарите релизера, оцените раздачу и оставьте свои комментарий, если Вы скачали Как убить соседскую собаку? через торрент бесплатно! Внесите свою лепту в развитие PiratBit!
    Комментировать посты могут только пользователи прошедшие не сложную регистрацию
    Показать сообщения:    

    Как убить соседскую собаку? через торрент
    Скачать бесплатно Как убить соседскую собаку?
    Как убить соседскую собаку? скачать торрент
    Как убить соседскую собаку? смотреть онлайн
    Cкачать фильм Как убить соседскую собаку? бесплатно
    Как убить соседскую собаку? скачать торрент в хорошем качестве
    Как убить соседскую собаку? смотреть онлайн бесплатно в хорошем качестве


    Вы не можете начинать темы
    Вы не можете отвечать на сообщения
    Вы не можете редактировать свои сообщения
    Вы не можете удалять свои сообщения
    Вы не можете голосовать в опросах
    Вы не можете прикреплять файлы к сообщениям
    Вы можете скачивать файлы