Ссылка на приватное зеркало всего за 1$. Внимание количество ограничено!!!

OK

1+1

iTunes

мы

OK

1

WEB-DLRip

Джокер

Пифагор

Ведьмак / The Witcher сериал

iTunes

ПШазам

ОК

Оно 2

iTunes

30
pack

Вам бонус

ВАЖНО

!!Акция!!

Alien_RageХит недели

RePack

Resident Evil 21

ИГРА 18+

pack

RePack

jed

RePack

fifa19

RePack

Assassins Creed: Odyssey

RePack

NEED FOR SPEED™ PAYBACK

4 сезон

9 сезон

Бесстыжие 9 сезон

Все сериалы

все сериалы на PB.wtf

RePack

FAR CRY 5
  

Кармилла / The Carmilla Movie (Спенсер Мэйби) [2017, ужасы, мелодрама, комедия, WEB-DL 720p] MVO ["Синема УС"] pb.wtf

Кармилла через торрент pb.wtf

Размер: 3.29 GB | Добавлен: 1 год 9 мес. назад | Торрент скачан:73 раза
Скачать  

01-04-2018 05:10 Кармилла Скачать торрент  

Кармилла / The Carmilla MovieГод выпуска: 2017
Страна: Канада
Жанр: ужасы, мелодрама, комедия
Продолжительность: 01:41:36
Перевод: Любительский (многоголосый) | "Синема УС"
Субтитры: отсутствуют

Режиссер: Спенсер Мэйби

rating

В ролях:

Элиз Бауман, Наташа Негованлис, Энни Бриггс, Кейтлин Александр, Николь Стэмп, Доминик Провост-Чалкли, Грэйс Линн Кунг, Кара Ги, Софи Уолкер

Описание:

Фильм рассказывает о женщине-вампире, основанный на культовом романе ирландца Джозефа Шеридана Ле Фаню. Кармилла превращается в простого смертного человека, после спасения грядущего конца света. Вместе со своей девушкой Лаурой, занимающейся журналистикой, они снимают квартирку в пригороде Торонто. Обычные будни, обычных людей, но их семейная идиллия вдруг прерывается, со вновь пришедшими вампирскими привычками Кармиллы. Она случайным образом кусает Лауре шею, после чего ей начинают снится странные, призрачные сны. Пара решает привлечь своих старых друзей из университета Сайлас, для того чтобы раскрыть неизвестную сверхъестественную угрозу и спасти человечество, в том числе саму Кармиллу. Но человеческие манеры вампирши, потихоньку угасают и тем временем она просто нападает на всех подряд. Лаура вместе с приятельницами решают вернуться в замок 19-ого века, для того чтобы найти девушку погибшую 150 лет назад и получить все ответы о том, что же происходит с Кармиллой. Их ждет невероятное приключение, полная загадок и опасностей.

Качество: WEB-DL 720p
Формат: MKV

Видео: 4489 Кбит/с, 1280x534
Аудио#1: AC3, 2 ch, 384 Кбит/с
скриншот  скриншот  скриншот  

Общее
Уникальный идентификатор : 212477093586411504947177430420179265902 (0x9FD999862A36DB488971AA113C0E296E)
Полное имя : D:\The.Carmilla.Movie.2O17.P.WEB-DL.72Op_KOSHARA.mkv
Формат : Matroska
Версия формата : Version 2
Размер файла : 3,29 Гбайт
Продолжительность : 1 ч. 36 м.
Режим общего битрейта : Переменный
Общий поток : 4875 Кбит/сек
Дата кодирования : UTC 2018-03-31 19:25:12
Программа кодирования : mkvmerge v8.3.0 ('Over the Horizon') 64bit
Библиотека кодирования : libebml v1.3.1 + libmatroska v1.4.2

Видео
Идентификатор : 1
Формат : AVC
Формат/Информация : Advanced Video Codec
Профиль формата : High@L4.1
Параметр CABAC формата : Да
Параметр RefFrames формата : 4 кадра
Идентификатор кодека : V_MPEG4/ISO/AVC
Продолжительность : 1 ч. 36 м.
Вид битрейта : Переменный
Битрейт : 4489 Кбит/сек
Максимальный битрейт : 5000 Кбит/сек
Ширина : 1280 пикселей
Высота : 534 пикселя
Соотношение сторон : 2,40:1
Режим частоты кадров : Постоянный
Частота кадров : 23,976 (24000/1001) кадра/сек
Стандарт вещания : Component
Цветовое пространство : YUV
Субдискретизация насыщенности : 4:2:0
Битовая глубина : 8 бит
Тип развёртки : Прогрессивная
Бит/(Пиксели*Кадры) : 0.268
Размер потока : 2,96 Гбайт (90%)
Default : Да
Forced : Нет
Цветовой диапазон : Limited
Основные цвета : BT.709
Характеристики трансфера : BT.709
Коэффициенты матрицы : BT.709

Аудио
Идентификатор : 2
Формат : AC-3
Формат/Информация : Audio Coding 3
Расширение режима : CM (complete main)
Параметр Endianness формата : Big
Идентификатор кодека : A_AC3
Продолжительность : 1 ч. 36 м.
Вид битрейта : Постоянный
Битрейт : 384 Кбит/сек
Каналы : 2 канала
Расположение каналов : Front: L R
Частота : 48,0 КГц
Частота кадров : 31,250 кадров/сек (1536 spf)
Метод сжатия : С потерями
Размер потока : 265 Мбайт (8%)
Default : Да
Forced : Нет

pb.wtf



Скачать Кармилла через торрент http://img12.lostpic.net/2018/04/01/adce2172ac18cc14731b8990d404be92.jpg Скачать фильм Кармилла через торрент бесплантно в хорошем качестве Описание: Фильм рассказывает о женщине-вампире, основанный на культовом романе ирландца Джозефа Шеридана Ле Фаню. Кармилла превращается в ... 6.3 10 6
Торрент: Зарегистрирован [2018-04-01 05:10] · скачан: 73 раз
Статус: T временная
Размер: 3.29 GB
Как cкачать? Как скачать Кармилла через торрент | qTorrent

% Раздел Тема Автор DL S | L
T Фильмы (мультфильмы) cо спонсором показа (Новинки AVI/MKV) [ 1.34 GB ] Кармилла / The Carmilla Movie [2017 WEB-DLRip] MVO ["Синема УС"] bober100 Скачать
1 | 0

28-11-2019 20:33  

Отключить всю рекламу на сайте

01-04-2018 07:38 Кармилла Скачать торрент  

лесби?pb.wtf



01-04-2018 08:04 Кармилла Скачать торрент  

да нет номальная канадская семьяpb.wtf



    Дорогой пользователь! Огромная просьба, поблагодарите релизера, оцените раздачу и оставьте свои комментарий, если Вы скачали Кармилла через торрент бесплатно! Внесите свою лепту в развитие PiratBit!
    Комментировать посты могут только пользователи прошедшие не сложную регистрацию
    Показать сообщения:    

    Кармилла через торрент
    Скачать бесплатно Кармилла
    Кармилла скачать торрент
    Кармилла смотреть онлайн
    Cкачать фильм Кармилла бесплатно
    Кармилла скачать торрент в хорошем качестве
    Кармилла смотреть онлайн бесплатно в хорошем качестве


    Вы не можете начинать темы
    Вы не можете отвечать на сообщения
    Вы не можете редактировать свои сообщения
    Вы не можете удалять свои сообщения
    Вы не можете голосовать в опросах
    Вы не можете прикреплять файлы к сообщениям
    Вы можете скачивать файлы