Всегда рабочее зеркало без VPN и Proxy просто перед .vidak.icu напиши любое слово или цифру, Пример http://6iwo.vidak.icu

MVO

2 сезон

2 сезон

1

1 сезон

iTunes

2 сезон

13

1 сезон

Deluxe

pack

Рекомендуем

Пиратка

30

ВАЖНО

RePack

MK11

RePack

jed

RePack

fifa19

RePack

RDR2

RePack

NEED FOR SPEED™ PAYBACK

Кинопоиск HD

6 сезон

 Острые козырьки 6 сезон

Все сериалы

все сериалы на PB.wtf

RePack

FAR CRY 5

Anonymous, нам критически не хватает 5601 руб. на оплату серверов и переферии за Апрель, помоги нам пожалуйста, вся надежда только на тебя. В благодарность мы отключим тебе всю рекламу на сайте!

×
  
Magnet ссылка

Планета обезьян: Война / War for the Planet of the Apes (Мэтт Ривз) [2017, фантастика, боевик, триллер, BDRemux 1080p] DUB + 3xAVO pb.wtf

Планета обезьян: Война через торрент pb.wtf

Размер: 45.87 GB | Добавлен: 4 года 1 мес. назад | Торрент скачан:17 раз
Смотреть онлайн Планета обезьян: Война | Скачать    Ребята, помогите собрать деньги на оплату серверов!!!

01-04-2018 07:47 Планета обезьян: Война Скачать торрент  

Планета обезьян: Война / War for the Planet of the Apes«Кульминация великого противостояния»
Год выпуска: 2017
Страна: Канада, Новая Зеландия, США
Жанр: фантастика, боевик, триллер, драма, приключения
Продолжительность: 02:20:10
Перевод: Дублированный, авторский
Субтитры: Русские, английские
Режиссер: Мэтт Ривз
В ролях:

Энди Серкис (Caesar), Вуди Харрельсон (The Colonel), Стив Зан (Bad Ape), Карин Коновал (Maurice), Амайя Миллер (Nova), Терри Нотари (Rocket), Тай Олссон (Red Donkey), Майкл Адамуэйт (Luca), Тоби Кеббелл (Koba), Гэбриел Чаварриа (Preacher), Джуди Грир (Cornelia), Сара Каннинг (Lake)
Описание:
Армию генетически модифицированных обезьян ожидает новый вызов: они вынуждены вступить в смертельную схватку с армией людей под руководством безжалостного полковника. После невообразимых потерь среди своих воинов вождь обезьян Цезарь начинает личную борьбу с темными инстинктами и собирается отомстить за весь свой вид. В конце концов он и полковник должны будут сойтись в эпической битве, которая решит, кто теперь будет править на Земле - люди или обезьяны.
Рейтинг:

MPAA: PG-13 - Детям до 13 лет просмотр не желателен
Качество: BDRemux 1080p
Формат: MKV
Видео: MPEG-4 AVC, 23355 Кбит/с, 1920х1080, 23.976 кадр/с
Аудио 1: Русский (DTS-HD MA Audio, 8 ch, 48 kHz, 4870 kbps) - Дубляж (Sergesha)
Аудио 2: Русский (DTS, 6 ch, 768 Кбит/с) - Дубляж
Аудио 3: Русский (DTS-HD MA Audio, 6 ch, 48 kHz, 3550 kbps) - Авторский (Есарев)
Аудио 4: Русский (DTS-HD MA Audio, 8 ch, 48 kHz, 4813 kbps) - Авторский (Живов)
Аудио 5: Русский (DTS-HD MA Audio, 8 ch, 48 kHz, 4802 kbps) - Авторский (Гаврилов)
Аудио 6: Английский (DTS-HD MA Audio, 8 ch, 48 kHz, 4780 kbps) - Оригинал
Навигация по главам: есть
Общее
Уникальный идентификатор : 240208018518362693152176411782141883408 (0xB4B661AEE0384489B55BB5BF6D42B410)
Полное имя : D:\РЕМУКС!!!!!\Планета обезьян. Война. BDRemux.mkv
Формат : Matroska
Версия формата : Version 4 / Version 2
Размер файла : 45,9 Гбайт
Продолжительность : 2 ч. 20 м.
Режим общего битрейта : Переменный
Общий поток : 46,9 Мбит/сек
Название фильма : Планета обезьян: Война. BDRemux.thx:SPOMOPS
Дата кодирования : UTC 2018-03-17 12:13:34
Программа кодирования : mkvmerge v8.3.0 ('Over the Horizon') 64bit
Библиотека кодирования : libebml v1.3.1 + libmatroska v1.4.2

Видео
Идентификатор : 1
Формат : AVC
Формат/Информация : Advanced Video Codec
Профиль формата : High@L4.1
Настройки формата : CABAC / 4 Ref Frames
Параметр CABAC формата : Да
Параметр RefFrames формата : 4 кадра
Идентификатор кодека : V_MPEG4/ISO/AVC
Продолжительность : 2 ч. 20 м.
Вид битрейта : Переменный
Битрейт : 23,4 Мбит/сек
Максимальный битрейт : 36,0 Мбит/сек
Ширина : 1920 пикселей
Высота : 1080 пикселей
Соотношение сторон : 16:9
Режим частоты кадров : Постоянный
Частота кадров : 23,976 (24000/1001) кадра/сек
Цветовое пространство : YUV
Субдискретизация насыщенности : 4:2:0
Битовая глубина : 8 бит
Тип развёртки : Прогрессивная
Бит/(Пиксели*Кадры) : 0.470
Размер потока : 22,9 Гбайт (50%)
Заголовок : Планета обезьян: Война
Язык : English
Default : Да
Forced : Нет

Аудио #1
Идентификатор : 2
Формат : DTS
Формат/Информация : Digital Theater Systems
Профиль формата : MA / Core
Идентификатор кодека : A_DTS
Продолжительность : 2 ч. 20 м.
Вид битрейта : Переменный / Постоянный
Битрейт : 4780 Кбит/сек / 1509 Кбит/сек
Каналы : 8 каналов / 6 каналов
Расположение каналов : Front: L C R, Side: L R, Back: L R, LFE / Front: L C R, Side: L R, LFE
Частота : 48,0 КГц
Частота кадров : 93,750 кадра/сек (512 SPF)
Битовая глубина : 24 бит
Метод сжатия : Без потерь / Lossy
Размер потока : 4,68 Гбайт (10%)
Заголовок : Русский DTS-HD MA - Дубляж
Язык : Russian
Default : Нет
Forced : Нет

Аудио #2
Идентификатор : 3
Формат : DTS
Формат/Информация : Digital Theater Systems
Идентификатор кодека : A_DTS
Продолжительность : 2 ч. 20 м.
Вид битрейта : Постоянный
Битрейт : 768 Кбит/сек
Каналы : 6 каналов
Расположение каналов : Front: L C R, Side: L R, LFE
Частота : 48,0 КГц
Частота кадров : 93,750 кадра/сек (512 SPF)
Битовая глубина : 24 бит
Метод сжатия : С потерями
Размер потока : 770 Мбайт (2%)
Заголовок : Русский DTS - Дубляж
Язык : Russian
Default : Нет
Forced : Нет

Аудио #3
Идентификатор : 4
Формат : DTS
Формат/Информация : Digital Theater Systems
Профиль формата : MA / Core
Идентификатор кодека : A_DTS
Продолжительность : 2 ч. 20 м.
Вид битрейта : Переменный / Постоянный
Битрейт : 3550 Кбит/сек / 1509 Кбит/сек
Каналы : 6 каналов
Расположение каналов : Front: L C R, Side: L R, LFE
Частота : 48,0 КГц
Частота кадров : 93,750 кадра/сек (512 SPF)
Битовая глубина : 24 бит
Метод сжатия : Без потерь / Lossy
Размер потока : 3,48 Гбайт (8%)
Заголовок : Русский DTS-HD MA - АП (Д. Есарев)
Язык : Russian
Default : Нет
Forced : Нет

Аудио #4
Идентификатор : 5
Формат : DTS
Формат/Информация : Digital Theater Systems
Профиль формата : MA / Core
Идентификатор кодека : A_DTS
Продолжительность : 2 ч. 20 м.
Вид битрейта : Переменный / Постоянный
Битрейт : 4813 Кбит/сек / 1509 Кбит/сек
Каналы : 8 каналов / 6 каналов
Расположение каналов : Front: L C R, Side: L R, Back: L R, LFE / Front: L C R, Side: L R, LFE
Частота : 48,0 КГц
Частота кадров : 93,750 кадра/сек (512 SPF)
Битовая глубина : 24 бит
Метод сжатия : Без потерь / Lossy
Размер потока : 4,71 Гбайт (10%)
Заголовок : Русский DTS-HD MA - АП (Живов)
Язык : Russian
Default : Нет
Forced : Нет

Аудио #5
Идентификатор : 6
Формат : DTS
Формат/Информация : Digital Theater Systems
Профиль формата : MA / Core
Идентификатор кодека : A_DTS
Продолжительность : 2 ч. 20 м.
Вид битрейта : Переменный / Постоянный
Битрейт : 4802 Кбит/сек / 1509 Кбит/сек
Каналы : 8 каналов / 6 каналов
Расположение каналов : Front: L C R, Side: L R, Back: L R, LFE / Front: L C R, Side: L R, LFE
Частота : 48,0 КГц
Частота кадров : 93,750 кадра/сек (512 SPF)
Битовая глубина : 24 бит
Метод сжатия : Без потерь / Lossy
Размер потока : 4,70 Гбайт (10%)
Заголовок : Русский DTS-HD MA - АП (Гаврилов)
Язык : Russian
Default : Нет
Forced : Нет

Аудио #6
Идентификатор : 7
Формат : DTS
Формат/Информация : Digital Theater Systems
Профиль формата : MA / ES Matrix / Core
Идентификатор кодека : A_DTS
Продолжительность : 2 ч. 20 м.
Вид битрейта : Переменный / Постоянный / Постоянный
Битрейт : 4780 Кбит/сек / 1509 Кбит/сек / 1509 Кбит/сек
Каналы : 8 каналов / 7 каналов / 6 каналов
Расположение каналов : Front: L C R, Side: L R, Back: L R, LFE / Front: L C R, Side: L R, Back: C, LFE / Front: L C R, Side: L R, LFE
Частота : 48,0 КГц
Частота кадров : 93,750 кадра/сек (512 SPF)
Битовая глубина : 24 бит
Метод сжатия : Без потерь / Lossy / Lossy
Размер потока : 4,68 Гбайт (10%)
Заголовок : Английский DTS-HD MA - Оригинал
Язык : English
Default : Нет
Forced : Нет

Текст #1
Идентификатор : 8
Формат : UTF-8
Идентификатор кодека : S_TEXT/UTF8
Идентификатор кодека/Информация : UTF-8 Plain Text
Продолжительность : 2 ч. 18 м.
Битрейт : 8 бит/сек
ElementCount : 220
Размер потока : 8,96 Кбайт (0%)
Заголовок : Русские Forced
Язык : Russian
Default : Да
Forced : Нет

Текст #2
Идентификатор : 9
Формат : UTF-8
Идентификатор кодека : S_TEXT/UTF8
Идентификатор кодека/Информация : UTF-8 Plain Text
Продолжительность : 2 ч. 18 м.
Битрейт : 28 бит/сек
ElementCount : 797
Размер потока : 28,5 Кбайт (0%)
Заголовок : Русские Full
Язык : Russian
Default : Нет
Forced : Нет

Текст #3
Идентификатор : 10
Формат : UTF-8
Идентификатор кодека : S_TEXT/UTF8
Идентификатор кодека/Информация : UTF-8 Plain Text
Продолжительность : 2 ч. 8 м.
Битрейт : 16 бит/сек
ElementCount : 748
Размер потока : 15,5 Кбайт (0%)
Заголовок : Английские Full
Язык : English
Default : Нет
Forced : Нет

Меню
00:00:00.000 : en:00:00:00.000
00:05:05.889 : en:00:05:05.889
00:09:06.713 : en:00:09:06.713
00:12:14.108 : en:00:12:14.108
00:18:21.017 : en:00:18:21.017
00:25:04.503 : en:00:25:04.503
00:30:17.399 : en:00:30:17.399
00:34:13.093 : en:00:34:13.093
00:37:46.347 : en:00:37:46.347
00:42:54.447 : en:00:42:54.447
00:49:31.802 : en:00:49:31.802
00:54:14.626 : en:00:54:14.626
00:58:49.818 : en:00:58:49.818
01:05:24.129 : en:01:05:24.129
01:10:18.381 : en:01:10:18.381
01:14:53.823 : en:01:14:53.823
01:18:59.193 : en:01:18:59.193
01:25:35.672 : en:01:25:35.672
01:29:37.372 : en:01:29:37.372
01:34:22.824 : en:01:34:22.824
01:39:27.712 : en:01:39:27.712
01:43:48.222 : en:01:43:48.222
01:48:45.394 : en:01:48:45.394
01:55:20.580 : en:01:55:20.580
01:58:04.703 : en:01:58:04.703
02:02:33.930 : en:02:02:33.930
02:05:54.797 : en:02:05:54.797
02:12:51.213 : en:02:12:51.213
pb.wtf



Скачать Планета обезьян: Война через торрент http://i99.fastpic.ru/big/2018/0401/22/4dc3319c2f3b462ee4b4d1844875da22.png Скачать, смотреть онлайн Планета обезьян: Война бесплантно в хорошем качестве Описание: Армию генетически модифицированных обезьян ожидает новый вызов: они вынуждены вступить в смертельную схватку с армией людей под ... 7 10 2
Торрент: Зарегистрирован [2018-04-01 07:47] · скачан: 17 раз
Статус: √ проверено
Размер: 45.87 GB
Как cкачать? Как скачать Планета обезьян: Война через торрент | UTorrent

% Раздел Тема Автор DL S | L
Ultra HD (UHD: 2K, 4K, 8K) — видео сверхвысокой чёткости [ 60.13 GB ] Планета обезьян: Война / War for the Planet of the Apes [2017 UHD BDRemux 2160p] DUB + 3xAVO sheker187 Скачать
1 | 0

28-11-2019 20:33  

Отключить всю рекламу на сайте

26-06-2018 17:22 Планета обезьян: Война Скачать торрент  

Какие здесь 4К "хуже картинкой" чем этот 1080. Для себя хочется "сильный" 4К. Не видно там?pb.wtf



    Дорогой пользователь! Огромная просьба, поблагодарите релизера, оцените раздачу и оставьте свои комментарий, если Вы скачали Планета обезьян: Война через торрент бесплатно!
    Комментировать посты могут только пользователи прошедшие не сложную регистрацию
    Показать сообщения:    

    Планета обезьян: Война через торрент
    Скачать бесплатно Планета обезьян: Война
    Планета обезьян: Война скачать торрент
    Планета обезьян: Война смотреть онлайн
    Cкачать фильм Планета обезьян: Война бесплатно
    Планета обезьян: Война скачать торрент в хорошем качестве
    Планета обезьян: Война смотреть онлайн бесплатно в хорошем качестве


    Вы не можете начинать темы
    Вы не можете отвечать на сообщения
    Вы не можете редактировать свои сообщения
    Вы не можете удалять свои сообщения
    Вы не можете голосовать в опросах
    Вы не можете прикреплять файлы к сообщениям
    Вы можете скачивать файлы