Лицензия

MVO

1

1 сезон

Лицензия

Лицензия

13

MVO

1 сезон

Deluxe Edition

pack

Рекомендуем

30

Repack

ВАЖНО

ВАЖНО

Ghostwire

RePack

jed

RePack

fifa19

RePack

RDR2

RePack

NEED FOR SPEED™ PAYBACK

RePack

Кинопоиск HD

 Острые козырьки 6 сезон

6 сезон

FAR CRY 6

RePack

Лицензия

MVO

1

1 сезон

1 сезон

Лицензия

  

Комната с загадками / Riddle Room (Брайан Биндер) [2016, ужасы, WEB-DL 720p] MVO [официальный звук]

Комната с загадками через торрент pb.wtf

Размер: 2.57 GB | Добавлен: 4 года 5 мес. назад | Торрент скачан:52 раза
Смотреть онлайн Комната с загадками | Скачать   

01-04-2018 08:05 Комната с загадками Скачать торрент  

Комната с загадками / Riddle RoomГод выпуска: 2016
Страна: США
Жанр: ужасы
Продолжительность: 01:22:36
Перевод: Профессиональный многоголосый | официальный звук
Субтитры: отсутствуют

Режиссер: Брайан Биндер

rating

В ролях:

Джо Кэди, Питер Кэри, Барбара Эпштейн, Фил Гавел, Эрика Хоувленд, Тирен Джеймс, Ава Мэнсон, Мариса Стьюбер, Даниэль Усай, Дик Уорд

Описание:

Очнувшись в незнакомой комнате, Эмили Бернс, не понимающая, как попала сюда, пытается вырваться из плена, но вскоре девушка понимает, что комната наполнена загадками, которые ей предстоит разгадать.

Качество: WEB-DL 720p
Формат: MKV

Видео: 4075 Кбит/с, 1280x720
Аудио#1: AC3, 2 ch, 384 Кбит/с
скриншот  скриншот  скриншот  

Общее
Уникальный идентификатор : 194489931959998088195981853802789294686 (0x925165FC8473E499B7451B5D66CB525E)
Полное имя : D:\Komnata.s.zagadkami.2016.P.WEB-DL.72Op_KOSHARA.mkv
Формат : Matroska
Версия формата : Version 2
Размер файла : 2,57 Гбайт
Продолжительность : 1 ч. 22 м.
Режим общего битрейта : Переменный
Общий поток : 4460 Кбит/сек
Дата кодирования : UTC 2018-03-31 17:33:10
Программа кодирования : mkvmerge v8.3.0 ('Over the Horizon') 64bit
Библиотека кодирования : libebml v1.3.1 + libmatroska v1.4.2

Видео
Идентификатор : 1
Формат : AVC
Формат/Информация : Advanced Video Codec
Профиль формата : [email protected]
Параметр CABAC формата : Да
Параметр RefFrames формата : 4 кадра
Идентификатор кодека : V_MPEG4/ISO/AVC
Продолжительность : 1 ч. 22 м.
Вид битрейта : Переменный
Битрейт : 4075 Кбит/сек
Максимальный битрейт : 4800 Кбит/сек
Ширина : 1280 пикселей
Высота : 720 пикселей
Соотношение сторон : 16:9
Режим частоты кадров : Постоянный
Частота кадров : 23,976 (24000/1001) кадра/сек
Стандарт вещания : Component
Цветовое пространство : YUV
Субдискретизация насыщенности : 4:2:0
Битовая глубина : 8 бит
Тип развёртки : Прогрессивная
Бит/(Пиксели*Кадры) : 0.180
Размер потока : 2,30 Гбайт (89%)
Default : Да
Forced : Нет
Цветовой диапазон : Limited
Основные цвета : BT.709
Характеристики трансфера : BT.709
Коэффициенты матрицы : BT.709

Аудио
Идентификатор : 2
Формат : AC-3
Формат/Информация : Audio Coding 3
Расширение режима : CM (complete main)
Параметр Endianness формата : Big
Идентификатор кодека : A_AC3
Продолжительность : 1 ч. 22 м.
Вид битрейта : Постоянный
Битрейт : 384 Кбит/сек
Каналы : 2 канала
Расположение каналов : Front: L R
Частота : 48,0 КГц
Частота кадров : 31,250 кадров/сек (1536 spf)
Метод сжатия : С потерями
Размер потока : 227 Мбайт (9%)
Default : Да
Forced : Нет




Скачать Комната с загадками через торрент http://img12.lostpic.net/2018/04/01/6de96f93701f37fbea7504a36e50b4c5.jpg Скачать, смотреть онлайн Комната с загадками бесплантно в хорошем качестве Описание: Очнувшись в незнакомой комнате, Эмили Бернс, не понимающая, как попала сюда, пытается вырваться из плена, но вскоре девушка ... 8.2 10 5
Торрент: Зарегистрирован [2018-04-01 08:05] · скачан: 52 раз
Статус: T временная
Размер: 2.57 GB
Как cкачать? Как скачать Комната с загадками через торрент | UTorrent

% Раздел Тема Автор DL S | L
T Фильмы (мультфильмы) cо спонсором показа (Новинки AVI/MKV) [ 1.35 GB ] Комната с загадками / Riddle Room | MVO | DLRip bober100 Скачать
1 | 0

28-11-2019 20:33  

Отключить вcю реклaмy на сайте

    Дорогой пользователь! Огромная просьба, поблагодарите релизера, оцените раздачу и оставьте свои комментарий, если Вы скачали Комната с загадками через торрент бесплатно!!
    Комментировать посты могут только пользователи прошедшие не сложную регистрацию
    Показать сообщения:    


    Комната с загадками через торрент
    Скачать бесплатно Комната с загадками
    Комната с загадками скачать торрент
    Комната с загадками смотреть онлайн
    Cкачать фильм Комната с загадками бесплатно
    Комната с загадками скачать торрент в хорошем качестве
    Комната с загадками смотреть онлайн бесплатно в хорошем качестве
    Вы не можете начинать темы
    Вы не можете отвечать на сообщения
    Вы не можете редактировать свои сообщения
    Вы не можете удалять свои сообщения
    Вы не можете голосовать в опросах
    Вы не можете прикреплять файлы к сообщениям
    Вы можете скачивать файлы