Ссылка на приватное зеркало всего за 1$. Внимание количество ограничено!!!

OK

1+1

iTunes

мы

OK

1

WEB-DLRip

Джокер

Пифагор

Ведьмак / The Witcher сериал

Лицензия

ПШазам

ОК

Оно 2

iTunes

30
pack

Вам бонус

ВАЖНО

!!Акция!!

Alien_RageХит недели

RePack

Resident Evil 21

ИГРА 18+

pack

RePack

jed

!!Акция!!

Alien_Rage

RePack

fifa19

RePack

Assassins Creed: Odyssey

RePack

NEED FOR SPEED™ PAYBACK

4 сезон

9 сезон

Бесстыжие 9 сезон

Все сериалы

все сериалы на PB.wtf

RePack

FAR CRY 5
  

Во дворе / Хуже некуда / Screwed (Нильс-Эрик Экблом) [2017, драма, мелодрама, комедия, WEB-DL 720p] MVO [КОЛОБОК] pb.wtf

Во дворе через торрент pb.wtf

Размер: 3.31 GB | Добавлен: 1 год 9 мес. назад | Торрент скачан:6 раз
Скачать  

01-04-2018 08:54 Во дворе Скачать торрент  

Во дворе / Хуже некуда / ScrewedГод выпуска: 2017
Страна: Финляндия
Жанр: драма, мелодрама, комедия
Продолжительность: 01:39:04
Перевод: Любительский (многоголосый) | КОЛОБОК
Субтитры: Есть

Режиссер: Нильс-Эрик Экблом

rating

В ролях:

Микко Кауппила, Вальттери Лехтинен, Санна Маджури, Сами Хатала, Аманда Виролайнен, Осси Агрен, Мирья Оксанен, Кайса Саараккала, Юкка Федерли, Юхо Кескитало

Описание:

Семнадцатилетние Мику и Элиас находят себя и друг друга, проводя лето в финской провинции.

Качество: WEB-DL 720p
Формат: MKV

Видео: 4397 Кбит/с, 1280x720
Аудио#1: AC3, 2 ch, 384 Кбит/с
скриншот   скриншот   скриншот  

Общее
Уникальный идентификатор : 254779797489943355061112490506362038552 (0xBFACCDDAE10BAFF28E4186FA12042918)
Полное имя : D:\Pihalla.2O17.Pk.WEB-DL.72Op_KOSHARA.mkv
Формат : Matroska
Версия формата : Version 2
Размер файла : 3,31 Гбайт
Продолжительность : 1 ч. 39 м.
Режим общего битрейта : Переменный
Общий поток : 4783 Кбит/сек
Дата кодирования : UTC 2018-03-31 15:20:53
Программа кодирования : mkvmerge v8.3.0 ('Over the Horizon') 64bit
Библиотека кодирования : libebml v1.3.1 + libmatroska v1.4.2

Видео
Идентификатор : 1
Формат : AVC
Формат/Информация : Advanced Video Codec
Профиль формата : High@L4.1
Параметр CABAC формата : Да
Параметр RefFrames формата : 4 кадра
Идентификатор кодека : V_MPEG4/ISO/AVC
Продолжительность : 1 ч. 39 м.
Вид битрейта : Переменный
Битрейт : 4397 Кбит/сек
Максимальный битрейт : 5000 Кбит/сек
Ширина : 1280 пикселей
Высота : 720 пикселей
Соотношение сторон : 16:9
Режим частоты кадров : Постоянный
Частота кадров : 23,976 (24000/1001) кадра/сек
Стандарт вещания : Component
Цветовое пространство : YUV
Субдискретизация насыщенности : 4:2:0
Битовая глубина : 8 бит
Тип развёртки : Прогрессивная
Бит/(Пиксели*Кадры) : 0.195
Размер потока : 2,98 Гбайт (90%)
Default : Да
Forced : Нет
Цветовой диапазон : Limited
Основные цвета : BT.709
Характеристики трансфера : BT.709
Коэффициенты матрицы : BT.709

Аудио
Идентификатор : 2
Формат : AC-3
Формат/Информация : Audio Coding 3
Расширение режима : CM (complete main)
Параметр Endianness формата : Big
Идентификатор кодека : A_AC3
Продолжительность : 1 ч. 39 м.
Вид битрейта : Постоянный
Битрейт : 384 Кбит/сек
Каналы : 2 канала
Расположение каналов : Front: L R
Частота : 48,0 КГц
Частота кадров : 31,250 кадров/сек (1536 spf)
Метод сжатия : С потерями
Размер потока : 272 Мбайт (8%)
Default : Да
Forced : Нет

pb.wtf



Скачать Во дворе через торрент http://img12.lostpic.net/2018/04/01/f2dad16f7ec09190f2ee65e7a16f7fa9.jpg Скачать фильм Во дворе через торрент бесплантно в хорошем качестве Описание: Семнадцатилетние Мику и Элиас находят себя и друг друга, проводя лето в финской ... 5.2 10 6
Торрент: Зарегистрирован [2018-04-01 08:54] · скачан: 6 раз
Статус: T временная
Размер: 3.31 GB
Как cкачать? Как скачать Во дворе через торрент | qTorrent

% Раздел Тема Автор DL S | L
T Фильмы (мультфильмы) cо спонсором показа (Новинки AVI/MKV) [ 1.37 GB ] Во дворе / Хуже некуда / Screwed [2017 WEB-DLRip] MVO [КОЛОБОК] bober100 Скачать
1 | 0

28-11-2019 20:33  

Отключить всю рекламу на сайте

01-04-2018 09:14 Во дворе Скачать торрент  

в описание надо добавить крупными красными буквами "ALARMA!!!"pb.wtf



    Дорогой пользователь! Огромная просьба, поблагодарите релизера, оцените раздачу и оставьте свои комментарий, если Вы скачали Во дворе через торрент бесплатно! Внесите свою лепту в развитие PiratBit!
    Комментировать посты могут только пользователи прошедшие не сложную регистрацию
    Показать сообщения:    

    Во дворе через торрент
    Скачать бесплатно Во дворе
    Во дворе скачать торрент
    Во дворе смотреть онлайн
    Cкачать фильм Во дворе бесплатно
    Во дворе скачать торрент в хорошем качестве
    Во дворе смотреть онлайн бесплатно в хорошем качестве


    Вы не можете начинать темы
    Вы не можете отвечать на сообщения
    Вы не можете редактировать свои сообщения
    Вы не можете удалять свои сообщения
    Вы не можете голосовать в опросах
    Вы не можете прикреплять файлы к сообщениям
    Вы можете скачивать файлы