Ссылка на приватное зеркало всего за 1$. Внимание количество ограничено!!!

OK

1+1

iTunes

мы

OK

1

WEB-DLRip

Джокер

Пифагор

Ведьмак / The Witcher сериал

iTunes

ПШазам

ОК

Оно 2

iTunes

30
pack

Вам бонус

ВАЖНО

!!Акция!!

Alien_RageХит недели

RePack

Resident Evil 21

ИГРА 18+

pack

RePack

jed

RePack

fifa19

RePack

Assassins Creed: Odyssey

RePack

NEED FOR SPEED™ PAYBACK

4 сезон

9 сезон

Бесстыжие 9 сезон

Все сериалы

все сериалы на PB.wtf

RePack

FAR CRY 5
  

Затерянный ручей / Lost Creek (Колин Адамс-Туми) [2016, драма, фантастика, ужасы, WEB-DL 720p] MVO ["Синема УС"] pb.wtf

Затерянный ручей через торрент pb.wtf

Размер: 3.2 GB | Добавлен: 1 год 9 мес. назад | Торрент скачан:30 раз
Скачать  

01-04-2018 09:19 Затерянный ручей Скачать торрент  

Затерянный ручей / Lost CreekГод выпуска: 2016
Страна: США
Жанр: драма, фантастика, ужасы
Продолжительность: 01:33:37
Перевод: Любительский (многоголосый) | "Синема УС"
Субтитры: отсутствуют

Режиссер: Колин Адамс-Туми

rating

В ролях:

Бринна Барту, Лиза Коруци, Бетани Дафф, Брендан Дафф, Тед Форд, Прискилла Джонс

Описание:

После развода родителей и переезда в другой город 11-летний Питер и его друг Билл знакомятся с девушкой Мэгги, и накануне Хэллоуина отправляются в лес, чтобы повстречаться с монстром, рождённым кошмарными фантазиями Питера.

Качество: WEB-DL 720p
Формат: MKV

Видео: 4512 Кбит/с, 1280x716
Аудио#1: AC3, 2 ch, 384 Кбит/с
скриншот  скриншот  скриншот  

Общее
Уникальный идентификатор : 232502423936348982496183405544584824705 (0xAEEA5689CCD4E0138BE7635A2650C781)
Полное имя : D:\Lost Creek 2016.P.WEB-DL.72Op_KOSHARA.mkv
Формат : Matroska
Версия формата : Version 2
Размер файла : 3,20 Гбайт
Продолжительность : 1 ч. 33 м.
Режим общего битрейта : Переменный
Общий поток : 4898 Кбит/сек
Дата кодирования : UTC 2018-03-31 15:12:34
Программа кодирования : mkvmerge v8.3.0 ('Over the Horizon') 64bit
Библиотека кодирования : libebml v1.3.1 + libmatroska v1.4.2

Видео
Идентификатор : 1
Формат : AVC
Формат/Информация : Advanced Video Codec
Профиль формата : High@L4.1
Параметр CABAC формата : Да
Параметр RefFrames формата : 4 кадра
Идентификатор кодека : V_MPEG4/ISO/AVC
Продолжительность : 1 ч. 33 м.
Вид битрейта : Переменный
Битрейт : 4512 Кбит/сек
Максимальный битрейт : 5000 Кбит/сек
Ширина : 1280 пикселей
Высота : 716 пикселей
Соотношение сторон : 16:9
Режим частоты кадров : Постоянный
Частота кадров : 23,976 (24000/1001) кадра/сек
Стандарт вещания : Component
Цветовое пространство : YUV
Субдискретизация насыщенности : 4:2:0
Битовая глубина : 8 бит
Тип развёртки : Прогрессивная
Бит/(Пиксели*Кадры) : 0.201
Размер потока : 2,89 Гбайт (90%)
Default : Да
Forced : Нет
Цветовой диапазон : Limited
Основные цвета : BT.709
Характеристики трансфера : BT.709
Коэффициенты матрицы : BT.709

Аудио
Идентификатор : 2
Формат : AC-3
Формат/Информация : Audio Coding 3
Расширение режима : CM (complete main)
Параметр Endianness формата : Big
Идентификатор кодека : A_AC3
Продолжительность : 1 ч. 33 м.
Вид битрейта : Постоянный
Битрейт : 384 Кбит/сек
Каналы : 2 канала
Расположение каналов : Front: L R
Частота : 48,0 КГц
Частота кадров : 31,250 кадров/сек (1536 spf)
Метод сжатия : С потерями
Размер потока : 257 Мбайт (8%)
Default : Да
Forced : Нет

pb.wtf



Скачать Затерянный ручей через торрент http://img12.lostpic.net/2018/04/01/3e325c552f7ae679ef3617630dbe761a.jpg Скачать фильм Затерянный ручей через торрент бесплантно в хорошем качестве Описание: После развода родителей и переезда в другой город 11-летний Питер и его друг Билл знакомятся с девушкой Мэгги, и накануне ... 7.8 10 4
Торрент: Зарегистрирован [2018-04-01 09:19] · скачан: 30 раз
Статус: T временная
Размер: 3.2 GB
Как cкачать? Как скачать Затерянный ручей через торрент | qTorrent

% Раздел Тема Автор DL S | L
T Фильмы (мультфильмы) cо спонсором показа (Новинки AVI/MKV) [ 1.37 GB ] Затерянный ручей / Lost Creek [2016 WEB-DLRip] MVO ["Синема УС"] bober100 Скачать
1 | 0

28-11-2019 20:33  

Отключить всю рекламу на сайте

    Дорогой пользователь! Огромная просьба, поблагодарите релизера, оцените раздачу и оставьте свои комментарий, если Вы скачали Затерянный ручей через торрент бесплатно! Внесите свою лепту в развитие PiratBit!
    Комментировать посты могут только пользователи прошедшие не сложную регистрацию
    Показать сообщения:    

    Затерянный ручей через торрент
    Скачать бесплатно Затерянный ручей
    Затерянный ручей скачать торрент
    Затерянный ручей смотреть онлайн
    Cкачать фильм Затерянный ручей бесплатно
    Затерянный ручей скачать торрент в хорошем качестве
    Затерянный ручей смотреть онлайн бесплатно в хорошем качестве


    Вы не можете начинать темы
    Вы не можете отвечать на сообщения
    Вы не можете редактировать свои сообщения
    Вы не можете удалять свои сообщения
    Вы не можете голосовать в опросах
    Вы не можете прикреплять файлы к сообщениям
    Вы можете скачивать файлы