Ссылка на приватное зеркало всего за 1$. Внимание количество ограничено!!!

OK

1+1

iTunes

мы

OK

1

WEB-DLRip

Джокер

Пифагор

Ведьмак / The Witcher сериал

iTunes

ПШазам

ОК

Оно 2

iTunes

30
pack

Вам бонус

ВАЖНО

!!Акция!!

Alien_RageХит недели

RePack

Resident Evil 21

ИГРА 18+

pack

RePack

jed

RePack

fifa19

RePack

Assassins Creed: Odyssey

RePack

NEED FOR SPEED™ PAYBACK

4 сезон

9 сезон

Бесстыжие 9 сезон

Все сериалы

все сериалы на PB.wtf

RePack

FAR CRY 5
  

Возвращение в Монток / Return to Montauk (Фолькер Шлёндорф) [2017, драма, мелодрама, WEB-DL 720p] MVO [КОЛОБОК] pb.wtf

Возвращение в Монток через торрент pb.wtf

Размер: 4.86 GB | Добавлен: 1 год 9 мес. назад | Торрент скачан:14 раз
Скачать  

01-04-2018 09:39 Возвращение в Монток Скачать торрент  

Возвращение в Монток / Return to MontaukГод выпуска: 2017
Страна: Германия, Ирландия, Франция
Жанр: драма, мелодрама
Продолжительность: 01:48:43
Перевод: Любительский (многоголосый) | КОЛОБОК
Субтитры: отсутствуют

Режиссер: Фолькер Шлёндорф

rating

В ролях:

Стеллан Скарсгард, Нина Хосс, Брона Галлахер, Нильс Ареструп, Сюзанна Вольф, Роберт Зеелигер, Ольга Лежнева

Описание:

Во время книжного тура по Соединенным Штатам, зрелый мужчина Макс встречает юную женщину, в которую сразу же влюбляется. Но жизнь идет своим чередом, и он вынужден вернуться домой к своей жене. Много лет спустя он снова приезжает в Соединенные Штаты в надежде воссоединиться со своей возлюбленной и разобраться в их неоднозначных чувствах.

Качество: WEB-DL 720p
Формат: MKV

Видео: 5950 Kb/s, 1280x536
Аудио#1: Русский (AC3, 2 ch, 448 Кбит/с)
скриншот  скриншот  скриншот  

Общее
Уникальный идентификатор : 218675163803604060460758007201409826854 (0xA4834DFAADEEDF36AD2BBB91E2688026)
Полное имя : D:\Rueckkehr.nach.montauk.2017.P.WEB-DL.72Op_KOSHARA.mkv
Формат : Matroska
Версия формата : Version 2
Размер файла : 4,86 Гбайт
Продолжительность : 1 ч. 48 м.
Режим общего битрейта : Переменный
Общий поток : 6400 Кбит/сек
Дата кодирования : UTC 2018-03-29 19:04:53
Программа кодирования : mkvmerge v8.3.0 ('Over the Horizon') 64bit
Библиотека кодирования : libebml v1.3.1 + libmatroska v1.4.2

Видео
Идентификатор : 1
Формат : AVC
Формат/Информация : Advanced Video Codec
Профиль формата : High@L4.1
Параметр CABAC формата : Да
Параметр RefFrames формата : 4 кадра
Идентификатор кодека : V_MPEG4/ISO/AVC
Продолжительность : 1 ч. 48 м.
Вид битрейта : Переменный
Битрейт : 5950 Кбит/сек
Максимальный битрейт : 6700 Кбит/сек
Ширина : 1280 пикселей
Высота : 536 пикселей
Соотношение сторон : 2,40:1
Режим частоты кадров : Постоянный
Частота кадров : 23,976 (24000/1001) кадра/сек
Стандарт вещания : Component
Цветовое пространство : YUV
Субдискретизация насыщенности : 4:2:0
Битовая глубина : 8 бит
Тип развёртки : Прогрессивная
Бит/(Пиксели*Кадры) : 0.354
Размер потока : 4,42 Гбайт (91%)
Default : Да
Forced : Нет
Цветовой диапазон : Limited
Основные цвета : BT.709
Характеристики трансфера : BT.709
Коэффициенты матрицы : BT.709

Аудио
Идентификатор : 2
Формат : AC-3
Формат/Информация : Audio Coding 3
Расширение режима : CM (complete main)
Параметр Endianness формата : Big
Идентификатор кодека : A_AC3
Продолжительность : 1 ч. 48 м.
Вид битрейта : Постоянный
Битрейт : 448 Кбит/сек
Каналы : 2 канала
Расположение каналов : Front: L R
Частота : 48,0 КГц
Частота кадров : 31,250 кадров/сек (1536 spf)
Метод сжатия : С потерями
Размер потока : 348 Мбайт (7%)
Default : Да
Forced : Нет

pb.wtf



Скачать Возвращение в Монток через торрент http://img12.lostpic.net/2018/04/01/8e4ccb38e0fedea6d34dfaee5974cde6.jpg Скачать фильм Возвращение в Монток через торрент бесплантно в хорошем качестве Описание: Во время книжного тура по Соединенным Штатам, зрелый мужчина Макс встречает юную женщину, в которую сразу же влюбляется. Но жизнь ... 10 10 2
Торрент: Зарегистрирован [2018-04-01 09:39] · скачан: 14 раз
Статус: T временная
Размер: 4.86 GB
Как cкачать? Как скачать Возвращение в Монток через торрент | qTorrent

% Раздел Тема Автор DL S | L
T Фильмы (мультфильмы) cо спонсором показа (Новинки AVI/MKV) [ 1.37 GB ] Возвращение в Монток / Return to Montauk [2017 WEB-DLRip] MVO [КОЛОБОК] bober100 Скачать
1 | 0

28-11-2019 20:33  

Отключить всю рекламу на сайте

01-04-2018 11:46 Возвращение в Монток Скачать торрент  

Цитата:

зрелый мужчина Макс встречает юную женщину,

описание, как будто фильм "не в тот раздел" попалpb.wtf



    Дорогой пользователь! Огромная просьба, поблагодарите релизера, оцените раздачу и оставьте свои комментарий, если Вы скачали Возвращение в Монток через торрент бесплатно! Внесите свою лепту в развитие PiratBit!
    Комментировать посты могут только пользователи прошедшие не сложную регистрацию
    Показать сообщения:    

    Возвращение в Монток через торрент
    Скачать бесплатно Возвращение в Монток
    Возвращение в Монток скачать торрент
    Возвращение в Монток смотреть онлайн
    Cкачать фильм Возвращение в Монток бесплатно
    Возвращение в Монток скачать торрент в хорошем качестве
    Возвращение в Монток смотреть онлайн бесплатно в хорошем качестве


    Вы не можете начинать темы
    Вы не можете отвечать на сообщения
    Вы не можете редактировать свои сообщения
    Вы не можете удалять свои сообщения
    Вы не можете голосовать в опросах
    Вы не можете прикреплять файлы к сообщениям
    Вы можете скачивать файлы