Ссылка на приватное зеркало всего за 1$. Внимание количество ограничено!!!

OK

1+1

iTunes

мы

OK

1

WEB-DLRip

Джокер

Пифагор

Ведьмак / The Witcher сериал

iTunes

ПШазам

ОК

Оно 2

iTunes

30
pack

Вам бонус

ВАЖНО

!!Акция!!

Alien_RageХит недели

RePack

Resident Evil 21

ИГРА 18+

pack

RePack

jed

RePack

fifa19

RePack

Assassins Creed: Odyssey

RePack

NEED FOR SPEED™ PAYBACK

4 сезон

9 сезон

Бесстыжие 9 сезон

Все сериалы

все сериалы на PB.wtf

RePack

FAR CRY 5
  

Десять шагов к востоку (Хангельды Агаханов, Виктор Зак) [1960, СССР, детектив, приключения, VHSRip от AVP Studio] pb.wtf

Десять шагов к востоку через торрент pb.wtf

Размер: 745 MB | Добавлен: 1 год 9 мес. назад | Торрент скачан:13 раз
Скачать  

01-04-2018 10:26 Десять шагов к востоку Скачать торрент  

Десять шагов к востоку
Страна: СССР
Производство: Туркменфильм

Жанр: детектив, приключения
Год выпуска: 1960
Продолжительность: 01:02:16

Перевод: Не требуется
Cубтитры: нет
Оригинальная аудиодорожка: русский

Режиссер: Хангельды Агаханов, Виктор Зак

В ролях:
Артык Джаллыев, Аман Кульмамедов, Евгений Марков, Феликс Яворский, Кулькиши Кульмурадов, Юрий Соковнин, Дурды Сапаров, Михаил Фёдоров, Майса Карлыева, Мурад Курбанклычев, Сарры Каррыев, Владимир Лепко, Сетдар Караджаев, В. Лавров, М. Кочкаров...
Об актёрах подробней

Описание:
В десяти шагах от круглого столба в развалинах старой крепости Кум-Басан-Кала спрятаны секретные донесения, которые должны быть доставлены за границу. За этими документами иностранная разведка присылает своего шпиона. О событиях, которые произошли в старой крепости, рассказывает фильм.

Исходник: S-VHS
Качество видео: VHSRip
Формат видео: AVI

Видео: 688x512 (4:3), 25,000 кадров/сек, XviD ~ 1472 kbps avg, 0.167 bit/pixel
Аудио: 48 kHz, Dolby Digital AC3 2.0, 192 kbps

Раздача от:
Общее
Полное имя : Desyat.shagov.k.vostoku.1960.VHSRip_[New-team]_by_AVP_Studio.avi
Формат : AVI
Формат/Информация : Audio Video Interleave
Размер файла : 745 Мбайт
Продолжительность : 1 ч. 2 м.
Общий поток : 1674 Кбит/сек
Программа кодирования : VirtualDubMod 1.5.10.3 | www.virtualdub-fr.org || (build 2550/release)
Библиотека кодирования : VirtualDubMod build 2550/release

Видео
Идентификатор : 0
Формат : MPEG-4 Visual
Профиль формата : Advanced Simple@L5
Настройки формата : BVOP1 / Custom Matrix
Параметр BVOP формата : 1
Параметр QPel формата : Нет
Параметр GMC формата : Без точки перехода
Параметр матрицы формата : Выборочная
Идентификатор кодека : XVID
Идентификатор кодека/Подсказка : XviD
Продолжительность : 1 ч. 2 м.
Битрейт : 1472 Кбит/сек
Ширина : 688 пикселей
Высота : 512 пикселей
Соотношение сторон : 4:3
Частота кадров : 25,000 кадров/сек
Цветовое пространство : YUV
Субдискретизация насыщенности : 4:2:0
Битовая глубина : 8 бит
Тип развёртки : Прогрессивная
Метод сжатия : С потерями
Бит/(Пиксели*Кадры) : 0.167
Размер потока : 655 Мбайт (88%)
Библиотека кодирования : XviD 73

Аудио
Идентификатор : 1
Формат : AC-3
Формат/Информация : Audio Coding 3
Идентификатор кодека : 2000
Продолжительность : 1 ч. 2 м.
Вид битрейта : Постоянный
Битрейт : 192 Кбит/сек
Каналы : 2 канала
Расположение каналов : Front: L R
Частота : 48,0 КГц
Частота кадров : 31,250 кадров/сек (1536 SPF)
Битовая глубина : 16 бит
Метод сжатия : С потерями
Размер потока : 85,5 Мбайт (11%)
Выравнивание : Разделение по промежуткам
Продолжительность промежутка : 40 мс. (1,00 видеокадр)
Время предзагрузки промежутка : 500 мс
pb.wtf



Скачать Десять шагов к востоку через торрент http://i1.imageban.ru/out/2018/04/01/50555f5ed51fb700ab535f3f89c0baa3.png Скачать фильм Десять шагов к востоку через торрент бесплантно в хорошем качестве Описание:В десяти шагах от круглого столба в развалинах старой крепости Кум-Басан-Кала спрятаны секретные донесения, которые должны быть ... 5 10 1
Info! Золотая раздача, скачанное не засчитывается.
Торрент: Зарегистрирован [2018-04-01 10:26] · скачан: 13 раз
Статус: √ проверено
Размер: 745 MB
Как cкачать? Как скачать Десять шагов к востоку через торрент | qTorrent

% Раздел Тема Автор DL S | L
Кино СССР [ 744 MB ] Десять шагов к востоку [1960 СССР VHSRip-AVC от AVP Studio] AVP Studio Скачать
1 | 0

28-11-2019 20:33  

Отключить всю рекламу на сайте

    Дорогой пользователь! Огромная просьба, поблагодарите релизера, оцените раздачу и оставьте свои комментарий, если Вы скачали Десять шагов к востоку через торрент бесплатно! Внесите свою лепту в развитие PiratBit!
    Комментировать посты могут только пользователи прошедшие не сложную регистрацию
    Показать сообщения:    

    Десять шагов к востоку через торрент
    Скачать бесплатно Десять шагов к востоку
    Десять шагов к востоку скачать торрент
    Десять шагов к востоку смотреть онлайн
    Cкачать фильм Десять шагов к востоку бесплатно
    Десять шагов к востоку скачать торрент в хорошем качестве
    Десять шагов к востоку смотреть онлайн бесплатно в хорошем качестве


    Вы не можете начинать темы
    Вы не можете отвечать на сообщения
    Вы не можете редактировать свои сообщения
    Вы не можете удалять свои сообщения
    Вы не можете голосовать в опросах
    Вы не можете прикреплять файлы к сообщениям
    Вы можете скачивать файлы