Всегда рабочее зеркало без VPN и Proxy просто перед .vidak.icu напиши любое слово или цифру, Пример http://y03c.vidak.icu

MVO

MVO

1 сезон

1

1 сезон

iTunes

1 сезон

13

1 сезон

Deluxe

pack

Рекомендуем

Repack

30

ВАЖНО

RePack

MK11

RePack

jed

RePack

fifa19

RePack

RDR2

RePack

NEED FOR SPEED™ PAYBACK

Кинопоиск HD

6 сезон

 Острые козырьки 6 сезон

Все сериалы

все сериалы на PB.wtf

RePack

FAR CRY 5
  
Magnet ссылка

Крик 4 / Scream 4 (Уэс Крэйвен) [2011 г., Ужасы, Детектив, HDRip-AVC, Дубляж Лицензия] pb.wtf

Крик 4 через торрент pb.wtf

Размер: 2.24 GB | Добавлен: 4 года 4 мес. назад | Торрент скачан:26 раз
Смотреть онлайн Крик 4 | Скачать    Ребята, помогите собрать деньги на оплату серверов!!!

01-04-2018 12:13 Крик 4 Скачать торрент  

Крик 4 /
Scream 4
Год выпуска: 2011
Страна: США
Жанр: Ужасы, Детектив
Продолжительность: 01:50:48
Перевод: Дубляж (Лицензия)
Субтитры: отсутствуют

Режиссер: Уэс Крэйвен

Премьера в мире: 11 апреля 2011

rating

В ролях: Нив Кэмпбелл, Дэвид Аркетт, Кортни Кокс, Эмма Робертс, Рори Калкин, Хайден Панеттьери, Эрик Кнудсен и др.

Описание: Сидни Прескотт последние несколько лет провела в относительной тишине и покое. Жизнь потихоньку налаживается, вдали от вспышек и видеокамер папарацци. Но когда находят труп одного из студентов, мир Сидни Прескотт вновь начинает рушиться. Всему виной возродившийся убийца в маске «Лицо Призрака».

Качество: HDRip-AVC
Формат: MKV
Видео кодек: H.264
Аудио кодек: AC3
Видео: AVC/H.264, 1024х424, ~2450 Kbps, 0.235 bit/pixel
Аудио#1: AC3, 48.0 kHz, 6 ch, 448 Kbps - Дубляж (Лицензия)
Релиз от: winchester00100010
General
Unique ID : 183125973264104804627633460637473132770 (0x89C4C7909E1B94C4BA7BA78A043350E2)
Complete name : D:\Торрент файлы раздач вместе с фильмами\Крик.4.Scream.4.2011.HDRip-AVC.mkv
Format : Matroska
Format version : Version 2
File size : 2.24 GiB
Duration : 1 h 50 min
Overall bit rate : 2 899 kb/s
Encoded date : UTC 2017-05-27 19:03:44
Writing application : mkvmerge v7.8.0 ('River Man') 32bit built on Apr 3 2015 12:11:22
Writing library : libebml v1.3.1 + libmatroska v1.4.2

Video
ID : 1
Format : AVC
Format/Info : Advanced Video Codec
Format profile : [email protected]
Format settings : CABAC / 11 Ref Frames
Format settings, CABAC : Yes
Format settings, ReFrames : 11 frames
Codec ID : V_MPEG4/ISO/AVC
Duration : 1 h 50 min
Bit rate : 2 450 kb/s
Width : 1 024 pixels
Height : 424 pixels
Display aspect ratio : 2.40:1
Frame rate mode : Constant
Frame rate : 24.000 FPS
Color space : YUV
Chroma subsampling : 4:2:0
Bit depth : 8 bits
Scan type : Progressive
Bits/(Pixel*Frame) : 0.235
Stream size : 1.85 GiB (83%)
Writing library : x264 core 146 r2538 121396c
Encoding settings : cabac=1 / ref=11 / deblock=1:-3:-3 / analyse=0x3:0x113 / me=umh / subme=9 / psy=1 / psy_rd=1.00:0.00 / mixed_ref=1 / me_range=24 / chroma_me=1 / trellis=2 / 8x8dct=1 / cqm=0 / deadzone=21,11 / fast_pskip=0 / chroma_qp_offset=-2 / threads=12 / lookahead_threads=2 / sliced_threads=0 / nr=0 / decimate=0 / interlaced=0 / bluray_compat=0 / constrained_intra=0 / bframes=6 / b_pyramid=2 / b_adapt=2 / b_bias=0 / direct=3 / weightb=1 / open_gop=0 / weightp=2 / keyint=240 / keyint_min=24 / scenecut=40 / intra_refresh=0 / rc_lookahead=40 / rc=2pass / mbtree=0 / bitrate=2450 / ratetol=1.0 / qcomp=0.60 / qpmin=0 / qpmax=69 / qpstep=4 / cplxblur=20.0 / qblur=0.5 / vbv_maxrate=14000 / vbv_bufsize=14000 / nal_hrd=none / filler=0 / ip_ratio=1.40 / pb_ratio=1.30 / aq=1:1.00
Default : Yes
Forced : No

Audio
ID : 2
Format : AC-3
Format/Info : Audio Coding 3
Codec ID : A_AC3
Duration : 1 h 50 min
Bit rate mode : Constant
Bit rate : 448 kb/s
Channel(s) : 6 channels
Channel positions : Front: L C R, Side: L R, LFE
Sampling rate : 48.0 kHz
Frame rate : 31.250 FPS (1536 SPF)
Bit depth : 16 bits
Compression mode : Lossy
Stream size : 355 MiB (15%)
Service kind : Complete Main
Default : Yes
Forced : No

pb.wtf



Скачать Крик 4 через торрент http://s002.radikal.ru/i198/1706/dc/16c6943ff687.png Скачать, смотреть онлайн Крик 4 бесплантно в хорошем качестве Описание: Сидни Прескотт последние несколько лет провела в относительной тишине и покое. Жизнь потихоньку налаживается, вдали от вспышек и ... 7 10 3
Торрент: Зарегистрирован [2018-04-01 12:13] · скачан: 26 раз
Статус: √ проверено
Размер: 2.24 GB
Как cкачать? Как скачать Крик 4 через торрент | UTorrent

% Раздел Тема Автор DL S | L
Фильмы (DVD фильмы) [ 5.87 GB ] Крик 4 / Scream 4 [2011 DVD9] R5 voovaz Скачать
1 | 0
Фильмы 2011 [ 1.37 GB ] Крик 4 / Scream 4 [2011 DVDRip] Lil Badun Скачать
1 | 0
Фильмы 2011 [ 2.05 GB ] Крик 4 / Scream 4 [2011 HDRip] Lil Badun Скачать
1 | 0
Фильмы 2011 [ 1.37 GB ] Крик 4 / Scream 4 [2011 HDRip лицензия] 137 GB SD Скачать
1 | 1
Фильмы [HD 720p, 1080p] (Хороший звук DUB, MVO) [ 4.72 GB ] Крик 4 / Scream 4 [2011 BDRip 720p] diletant Скачать
1 | 0
Фильмы 2011 [ 1.95 GB ] Крик 4 / Scream 4 [2011 DVDRip лицензия] Lil Badun Скачать
1 | 0
Фильмы 2011 [ 711 MB ] Крик 4 / Scream 4 [2011 DVDRip лицензия] Sудья Скачать
1 | 0

28-11-2019 20:33  

Отключить вcю реклaмy на сайте

29-07-2018 12:20 Крик 4 Скачать торрент  

Всем приятного просмотра)pb.wtf



    Дорогой пользователь! Огромная просьба, поблагодарите релизера, оцените раздачу и оставьте свои комментарий, если Вы скачали Крик 4 через торрент бесплатно!
    Комментировать посты могут только пользователи прошедшие не сложную регистрацию
    Показать сообщения:    

    Крик 4 через торрент
    Скачать бесплатно Крик 4
    Крик 4 скачать торрент
    Крик 4 смотреть онлайн
    Cкачать фильм Крик 4 бесплатно
    Крик 4 скачать торрент в хорошем качестве
    Крик 4 смотреть онлайн бесплатно в хорошем качестве


    Вы не можете начинать темы
    Вы не можете отвечать на сообщения
    Вы не можете редактировать свои сообщения
    Вы не можете удалять свои сообщения
    Вы не можете голосовать в опросах
    Вы не можете прикреплять файлы к сообщениям
    Вы можете скачивать файлы