Ссылка на приватное зеркало всего за 1$. Внимание количество ограничено!!!

OK

1+1

iTunes

мы

OK

1

WEB-DLRip

Джокер

Пифагор

Ведьмак / The Witcher сериал

iTunes

ПШазам

ОК

Оно 2

iTunes

30
pack

Вам бонус

ВАЖНО

!!Акция!!

Alien_RageХит недели

RePack

Resident Evil 21

ИГРА 18+

pack

RePack

jed

RePack

fifa19

RePack

Assassins Creed: Odyssey

RePack

NEED FOR SPEED™ PAYBACK

4 сезон

9 сезон

Бесстыжие 9 сезон

Все сериалы

все сериалы на PB.wtf

RePack

FAR CRY 5
  

Лагерь Клевые ребята / Camp Cool Kids (Лиза Арнольд) [2017, семейный, WEB-DL 720p] MVO ["Синема УС"] pb.wtf

Лагерь Клевые ребята через торрент pb.wtf

Размер: 3.56 GB | Добавлен: 1 год 9 мес. назад | Торрент скачан:30 раз
Скачать  

01-04-2018 12:50 Лагерь Клевые ребята Скачать торрент  

Лагерь Клевые ребята / Camp Cool KidsГод выпуска: 2017
Страна: США
Жанр: семейный
Продолжительность: 01:46:35
Перевод: Любительский (многоголосый) | "Синема УС"
Субтитры: отсутствуют

Режиссер: Лиза Арнольд

rating

В ролях:

Коннор Розен, Логан Шроер, Майкл Гросс, Ли-Эллин Бейкер, Марки Пост, Хулиосезар Чавез, Шон Райан Фок

Описание:

Воодушевленный причудливым дедушкой, мальчик встречается со своими страхами в летнем лагере.

Качество: WEB-DL 720p
Формат: MKV

Видео: 4390 Kb/s, 1280x720
Аудио#1: Русский (AC3, 2 ch, 384 Кбит/с)
скриншот  скриншот  скриншот  

Общее
Уникальный идентификатор : 201707732662339339727695080538673892050 (0x97BF7F093FDC33E9BF98F77083CDCAD2)
Полное имя : D:\Camp.Cool.Kids.2017.P.WEB-DL.72Op_KOSHARA.mkv
Формат : Matroska
Версия формата : Version 2
Размер файла : 3,56 Гбайт
Продолжительность : 1 ч. 46 м.
Режим общего битрейта : Переменный
Общий поток : 4776 Кбит/сек
Дата кодирования : UTC 2018-03-29 15:30:17
Программа кодирования : mkvmerge v8.3.0 ('Over the Horizon') 64bit
Библиотека кодирования : libebml v1.3.1 + libmatroska v1.4.2

Видео
Идентификатор : 1
Формат : AVC
Формат/Информация : Advanced Video Codec
Профиль формата : High@L4.1
Параметр CABAC формата : Да
Параметр RefFrames формата : 4 кадра
Идентификатор кодека : V_MPEG4/ISO/AVC
Продолжительность : 1 ч. 46 м.
Вид битрейта : Переменный
Битрейт : 4390 Кбит/сек
Максимальный битрейт : 5000 Кбит/сек
Ширина : 1280 пикселей
Высота : 720 пикселей
Соотношение сторон : 16:9
Режим частоты кадров : Постоянный
Частота кадров : 23,976 (24000/1001) кадра/сек
Стандарт вещания : Component
Цветовое пространство : YUV
Субдискретизация насыщенности : 4:2:0
Битовая глубина : 8 бит
Тип развёртки : Прогрессивная
Бит/(Пиксели*Кадры) : 0.194
Размер потока : 3,20 Гбайт (90%)
Default : Да
Forced : Нет
Цветовой диапазон : Limited
Основные цвета : BT.709
Характеристики трансфера : BT.709
Коэффициенты матрицы : BT.709

Аудио
Идентификатор : 2
Формат : AC-3
Формат/Информация : Audio Coding 3
Расширение режима : CM (complete main)
Параметр Endianness формата : Big
Идентификатор кодека : A_AC3
Продолжительность : 1 ч. 46 м.
Вид битрейта : Постоянный
Битрейт : 384 Кбит/сек
Каналы : 2 канала
Расположение каналов : Front: L R
Частота : 48,0 КГц
Частота кадров : 31,250 кадров/сек (1536 spf)
Метод сжатия : С потерями
Размер потока : 293 Мбайт (8%)
Default : Да
Forced : Нет

pb.wtf



Скачать Лагерь Клевые ребята через торрент http://img12.lostpic.net/2018/04/01/26ea3dbcf169df8b2ff64e57d56cc217.jpg Скачать фильм Лагерь Клевые ребята через торрент бесплантно в хорошем качестве Описание: Воодушевленный причудливым дедушкой, мальчик встречается со своими страхами в летнем ... 10 10 2
Торрент: Зарегистрирован [2018-04-01 12:50] · скачан: 30 раз
Статус: T временная
Размер: 3.56 GB
Как cкачать? Как скачать Лагерь Клевые ребята через торрент | qTorrent

% Раздел Тема Автор DL S | L
T Фильмы (мультфильмы) cо спонсором показа (Новинки AVI/MKV) [ 1.37 GB ] Лагерь Клевые ребята / Camp Cool Kids [2017 WEB-DLRip] MVO ["Синема УС"] bober100 Скачать
1 | 0

28-11-2019 20:33  

Отключить всю рекламу на сайте

    Дорогой пользователь! Огромная просьба, поблагодарите релизера, оцените раздачу и оставьте свои комментарий, если Вы скачали Лагерь Клевые ребята через торрент бесплатно! Внесите свою лепту в развитие PiratBit!
    Комментировать посты могут только пользователи прошедшие не сложную регистрацию
    Показать сообщения:    

    Лагерь Клевые ребята через торрент
    Скачать бесплатно Лагерь Клевые ребята
    Лагерь Клевые ребята скачать торрент
    Лагерь Клевые ребята смотреть онлайн
    Cкачать фильм Лагерь Клевые ребята бесплатно
    Лагерь Клевые ребята скачать торрент в хорошем качестве
    Лагерь Клевые ребята смотреть онлайн бесплатно в хорошем качестве


    Вы не можете начинать темы
    Вы не можете отвечать на сообщения
    Вы не можете редактировать свои сообщения
    Вы не можете удалять свои сообщения
    Вы не можете голосовать в опросах
    Вы не можете прикреплять файлы к сообщениям
    Вы можете скачивать файлы