Ссылка на приватное зеркало всего за 1$. Внимание количество ограничено!!!

OK

1+1

iTunes

мы

OK

1

WEB-DLRip

Джокер

Пифагор

Ведьмак / The Witcher сериал

iTunes

ПШазам

ОК

Оно 2

iTunes

30
pack

Вам бонус

ВАЖНО

!!Акция!!

Alien_RageХит недели

RePack

Resident Evil 21

ИГРА 18+

pack

RePack

jed

RePack

fifa19

RePack

Assassins Creed: Odyssey

RePack

NEED FOR SPEED™ PAYBACK

4 сезон

9 сезон

Бесстыжие 9 сезон

Все сериалы

все сериалы на PB.wtf

RePack

FAR CRY 5
  

Первый поединок / First Match (Оливия Ньюман) [2018, драма, WEB-DL 720p] MVO ["Синема УС"] pb.wtf

Первый поединок через торрент pb.wtf

Размер: 3.47 GB | Добавлен: 1 год 9 мес. назад | Торрент скачан:50 раз
Скачать  

01-04-2018 16:37 Первый поединок Скачать торрент  

Первый поединок / First MatchГод выпуска: 2018
Страна: США
Жанр: драма
Продолжительность: 01:44:40
Перевод: Любительский (многоголосый) | "Синема УС"
Субтитры: отсутствуют

Режиссер: Оливия Ньюман

rating

В ролях:

Эльвира Эммануэль, Магга, Яхья Абдул-Матин II, Колман Доминго, Джаррель Джером, Ким Рамирес, Джаред Кемп, Иса Дэвис, Аллен Мальдонадо

Описание:

История девушки Моники из старшей школы, которая пробует перенаправить проблемы с гневом в занятия по рестлингу. По примеру отца, бывшего рестлера, она занимается, тренируясь в мужской команде, наравне со всеми. Всё усложняет отсутствие дома, бедность и сомнительные дела её папы, рестлера Короля Ди.

Качество: WEB-DL 720p
Формат: MKV

Видео: 4356 Кбит/с, 1280x720
Аудио#1: AC3, 2 ch, 384 Кбит/с
скриншот  скриншот  скриншот  

Общее
Уникальный идентификатор : 184900429574687399947808095277419399022 (0x8B1A8704002BE0BAA4592ED2448D076E)
Полное имя : D:\First.Match.2018.P.WEB-DL.72Op_KOSHARA.mkv
Формат : Matroska
Версия формата : Version 2
Размер файла : 3,47 Гбайт
Продолжительность : 1 ч. 44 м.
Режим общего битрейта : Переменный
Общий поток : 4742 Кбит/сек
Дата кодирования : UTC 2018-04-01 05:48:54
Программа кодирования : mkvmerge v8.3.0 ('Over the Horizon') 64bit
Библиотека кодирования : libebml v1.3.1 + libmatroska v1.4.2

Видео
Идентификатор : 1
Формат : AVC
Формат/Информация : Advanced Video Codec
Профиль формата : High@L4.1
Параметр CABAC формата : Да
Параметр RefFrames формата : 4 кадра
Идентификатор кодека : V_MPEG4/ISO/AVC
Продолжительность : 1 ч. 44 м.
Вид битрейта : Переменный
Битрейт : 4356 Кбит/сек
Максимальный битрейт : 5100 Кбит/сек
Ширина : 1280 пикселей
Высота : 720 пикселей
Соотношение сторон : 16:9
Режим частоты кадров : Постоянный
Частота кадров : 23,976 (24000/1001) кадра/сек
Стандарт вещания : Component
Цветовое пространство : YUV
Субдискретизация насыщенности : 4:2:0
Битовая глубина : 8 бит
Тип развёртки : Прогрессивная
Бит/(Пиксели*Кадры) : 0.193
Размер потока : 3,12 Гбайт (90%)
Default : Да
Forced : Нет
Цветовой диапазон : Limited
Основные цвета : BT.709
Характеристики трансфера : BT.709
Коэффициенты матрицы : BT.709

Аудио
Идентификатор : 2
Формат : AC-3
Формат/Информация : Audio Coding 3
Расширение режима : CM (complete main)
Параметр Endianness формата : Big
Идентификатор кодека : A_AC3
Продолжительность : 1 ч. 44 м.
Вид битрейта : Постоянный
Битрейт : 384 Кбит/сек
Каналы : 2 канала
Расположение каналов : Front: L R
Частота : 48,0 КГц
Частота кадров : 31,250 кадров/сек (1536 spf)
Метод сжатия : С потерями
Размер потока : 288 Мбайт (8%)
Default : Да
Forced : Нет

pb.wtf



Скачать Первый поединок через торрент http://img12.lostpic.net/2018/04/01/9697def6926ada7c6077f442f2c17e94.jpg Скачать фильм Первый поединок через торрент бесплантно в хорошем качестве Описание: История девушки Моники из старшей школы, которая пробует перенаправить проблемы с гневом в занятия по рестлингу. По примеру отца, ... 6.4 10 5
Торрент: Зарегистрирован [2018-04-01 16:37] · скачан: 50 раз
Статус: T временная
Размер: 3.47 GB
Как cкачать? Как скачать Первый поединок через торрент | qTorrent

% Раздел Тема Автор DL S | L
Фильмы (WEB-DL 720p, 1080p) [ 4.42 GB ] Первый поединок / First Match [2018 WEB-DL 1080p] MVO [PIRATBIT] DEVI Скачать
1 | 0
T Фильмы (мультфильмы) cо спонсором показа (Новинки AVI/MKV) [ 1.37 GB ] Первый поединок / First Match [2018 WEB-DLRip] MVO ["Синема УС"] bober100 Скачать
1 | 0

28-11-2019 20:33  

Отключить всю рекламу на сайте

    Дорогой пользователь! Огромная просьба, поблагодарите релизера, оцените раздачу и оставьте свои комментарий, если Вы скачали Первый поединок через торрент бесплатно! Внесите свою лепту в развитие PiratBit!
    Комментировать посты могут только пользователи прошедшие не сложную регистрацию
    Показать сообщения:    

    Первый поединок через торрент
    Скачать бесплатно Первый поединок
    Первый поединок скачать торрент
    Первый поединок смотреть онлайн
    Cкачать фильм Первый поединок бесплатно
    Первый поединок скачать торрент в хорошем качестве
    Первый поединок смотреть онлайн бесплатно в хорошем качестве


    Вы не можете начинать темы
    Вы не можете отвечать на сообщения
    Вы не можете редактировать свои сообщения
    Вы не можете удалять свои сообщения
    Вы не можете голосовать в опросах
    Вы не можете прикреплять файлы к сообщениям
    Вы можете скачивать файлы