Ссылка на приватное зеркало нашего сайта всего за 1$. Внимание количество ограничено!!!

2 сезон

iTunes

1 сезон

1

iTunes

iTunes

iTunes

1 сезон

RePack

30

ИГРА 18+

pack

ВАЖНО

!!Акция!!

Alien_RageХит недели

RePack

MK11
pack

Забери бонус

RePack

jed

!!Акция!!

Alien_Rage

RePack

fifa19

RePack

Assassins Creed: Odyssey

RePack

NEED FOR SPEED™ PAYBACK

4 сезон

9 сезон

Бесстыжие 9 сезон

Все сериалы

все сериалы на PB.wtf

RePack

FAR CRY 5
  

В плену у лжи / Секрет Мая / Серии: 1-4 из 4 (Олег Ларин) [2018, Драма, криминал, WEB-DLRip] pb.wtf

В плену у лжи через торрент pb.wtf

Размер: 2.34 GB | Добавлен: 2 года 6 мес. назад | Торрент скачан:117 раз
Скачать  

01-04-2018 17:08 В плену у лжи Скачать торрент  

В плену у лжи | Секрет Мая Год выпуска: 2018
Страна: Украина
Жанр: Драма, криминал
Продолжительность: ~ 00:44:00
Перевод: Не требуется
Субтитры: отсутствуют

Режиссер: Олег Ларин

В ролях: Ирина Таранник, Дмитрий Сова, Полина Ларина, Игорь Рубашкин, Николай Боклан, Владислав Мамчур, Владимир Осадчий, Игорь Петрусенко, Дмитрий Сарансков, Дмитрий Паламарчук

Описание: Молодая женщина Наташа попадает в сложную жизненную ситуацию, из которой ей придется выбираться самостоятельно. Потеря мужа, занимавшегося строительным бизнесом, криминальные наезды братков, предательство друзей... Все это испытания, которые ей придется преодолеть в самое ближайшее время.

Качество: WEB-DLRip
Формат: AVI

Видео: XviD ~ 1650 Кбит/с, 720x400
Аудио: AC3, 2 ch, 192 Кбит/с
скриншот  скриншот  скриншот  

Общее
Полное имя : D:\Sekret.Maja.2018.WEB-DLRip.Files-x\01.Sekret.Maja.2018.WEB-DLRip.Files-x.avi
Формат : AVI
Формат/Информация : Audio Video Interleave
Размер файла : 598 Мбайт
Продолжительность : 44 м. 46 с.
Общий поток : 1868 Кбит/сек
Программа кодирования : VirtualDubMod 1.5.10.3 | www.virtualdub-fr.org || (build 2550/release)
Библиотека кодирования : VirtualDubMod build 2550/release

Видео
Идентификатор : 0
Формат : MPEG-4 Visual
Профиль формата : Advanced Simple@L5
Параметр BVOP формата : 1
Параметр QPel формата : Нет
Параметр GMC формата : Без точки перехода
Параметр матрицы формата : Выборочная
Идентификатор кодека : XVID
Идентификатор кодека/Подсказка : XviD
Продолжительность : 44 м. 46 с.
Битрейт : 1667 Кбит/сек
Ширина : 720 пикселей
Высота : 400 пикселей
Соотношение сторон : 16:9
Частота кадров : 25,000 кадров/сек
Цветовое пространство : YUV
Субдискретизация насыщенности : 4:2:0
Битовая глубина : 8 бит
Тип развёртки : Прогрессивная
Метод сжатия : С потерями
Бит/(Пиксели*Кадры) : 0.231
Размер потока : 534 Мбайт (89%)
Библиотека кодирования : XviD 73

Аудио
Идентификатор : 1
Формат : AC-3
Формат/Информация : Audio Coding 3
Расширение режима : CM (complete main)
Параметр Endianness формата : Big
Идентификатор кодека : 2000
Продолжительность : 44 м. 46 с.
Вид битрейта : Постоянный
Битрейт : 192 Кбит/сек
Каналы : 2 канала
Расположение каналов : Front: L R
Частота : 48,0 КГц
Частота кадров : 31,250 кадров/сек (1536 spf)
Метод сжатия : С потерями
Размер потока : 61,5 Мбайт (10%)
Выравнивание : Разделение по промежуткам
Продолжительность промежутка : 40 мс. (1,00 видеокадр)
Время предзагрузки промежутка : 500 мс.

Когда раздача ведётся путём добавления новых серий, при каждом добавлении создётся новый торрент. Чтобы начать докачку новой серии, пользователям необходимо сделать следующее:
(1) остановить скачивание,
(2) удалить старый торрент у себя из клиента (старые серии удалять не надо),
(3) скачать новый торрент и запустить его у себя в клиенте вместо старого, при этом указать клиенту путь в старую папку, куда и должно происходить скачивание новых серий.
Ваш клиент при этом должен произвести хеширование (проверку) старой папки (если не производит сам - помогите ему сделать это), и будет докачивать только те серии, которых у вас ещё нет. Старые серии при этом не удаляются, а продолжают раздаваться!
Eсли вы уже удалили старые серии, то предотвратить повторную закачку старых серий можно, отжав галочку в соответсвующих местах при запуске нового торрента. По возможности, желательно не удалять старые серии как можно дольше, чтобы релизёр не столько продолжал раздавать старые серии, а смог сконцентрироваться на новых.
pb.wtf



Скачать В плену у лжи через торрент http://i103.fastpic.ru/big/2018/0401/e8/bcc834f8ce084d6a35ce7a87602a4be8.jpg Скачать фильм В плену у лжи через торрент бесплантно в хорошем качестве Описание: Молодая женщина Наташа попадает в сложную жизненную ситуацию, из которой ей придется выбираться самостоятельно. Потеря мужа, ... 10 10 6
Торрент: Зарегистрирован [2018-04-01 20:58] · скачан: 117 раз
Статус: √ проверено
Размер: 2.34 GB
Как cкачать? Как скачать В плену у лжи через торрент | qTorrent

28-11-2019 20:33  

Отключить всю рекламу на сайте

    Дорогой пользователь! Огромная просьба, поблагодарите релизера, оцените раздачу и оставьте свои комментарий, если Вы скачали В плену у лжи через торрент бесплатно! Внесите свою лепту в развитие PiratBit!
    Комментировать посты могут только пользователи прошедшие не сложную регистрацию
    Показать сообщения:    

    В плену у лжи через торрент
    Скачать бесплатно В плену у лжи
    В плену у лжи скачать торрент
    В плену у лжи смотреть онлайн
    Cкачать фильм В плену у лжи бесплатно
    В плену у лжи скачать торрент в хорошем качестве
    В плену у лжи смотреть онлайн бесплатно в хорошем качестве


    Вы не можете начинать темы
    Вы не можете отвечать на сообщения
    Вы не можете редактировать свои сообщения
    Вы не можете удалять свои сообщения
    Вы не можете голосовать в опросах
    Вы не можете прикреплять файлы к сообщениям
    Вы можете скачивать файлы