1 сезон

3 сезон

iTunes

1

iTunes

MVO

iTunes

13

1 сезон

RePack

30

Deluxe

pack

Лицензия

ВАЖНО

ИГРА 18+

pack

RePack

MK11

RePack

jed

RePack

fifa19

RePack

RDR2

RePack

NEED FOR SPEED™ PAYBACK

4 сезон

9 сезон

Бесстыжие 9 сезон

Все сериалы

все сериалы на PB.wtf

RePack

FAR CRY 5

Anonymous, доброй ночи, мы катастрофически не успеваем собрать деньги на оплату серверов, помогите нам пожалуйста 5,10,15р., для нас важна любая помощь . В качестве благодарности мы отключим Вам всю рекламу на сайте (укажите свой ник в строку Ваше имя)!

×
  
Magnet ссылка

Со дна вершины (Яна Поляруш, Тамара Цоцория, Константин Кутуев) [2018, драма, спорт, WEB-DL 720p] [iTunes] pb.wtf

Со дна вершины через торрент pb.wtf

Размер: 3.46 GB | Добавлен: 3 года 3 мес. назад | Торрент скачан:198 раз
Скачать  

02-04-2018 04:06 Со дна вершины Скачать торрент  

Со дна вершиныГод выпуска: 2018
Страна: Россия
Жанр: драма, спорт
Продолжительность: 01:51:51
Перевод: Не требуется | iTunes
Субтитры: отсутствуют

Режиссер: Яна Поляруш, Тамара Цоцория, Константин Кутуев



В ролях:

Павел Шевандо, Владимир Вдовиченков, Ксения Кузнецова, Сергей Никоненко, Константин Белошапка, Наталья Бергер, Ирина Розанова, Сергей Пускепалис, Нонна Гришаева, Никита Салопин

Описание:

Алексей Царёв — семнадцатилетний лидер школы и подающий большие надежды чемпион юношеской сборной по горным лыжам. У Алексея есть любимая девушка Лина и друг Костя, его соперник и в спорте, и в любви. Алексей — первый во всём. Он уверен в себе, не умеет и не желает проигрывать. Но всё меняется в один миг. После трагической случайности, которая происходит с Алексеем по вине Кости, их дружбе предстоит пройти проверку на прочность. Но сила духа, добро и любовь помогут перенести все испытания судьбы и приведут каждого к своей победе.

Качество: WEB-DL 720p
Формат: MKV

Видео: MPEG-4 AVC, 4067 kb/s, 1280x690
Аудио: Russian: 48 kHz, AC3, 3/2 (L,C,R,l,r) + LFE ch, ~384.00 kbps avg
скриншот  скриншот  скриншот  

Общее
Уникальный идентификатор : 253582915223783294933493984676292494263 (0xBEC64B00D50F8D87B1D6721D251A83B7)
Полное имя : D:\C0.2Ha.B3pW1Hy.2O18..O.WEB-DL.72Op.mkv
Формат : Matroska
Версия формата : Version 2
Размер файла : 3,46 Гбайт
Продолжительность : 1 ч. 51 м.
Общий поток : 4452 Кбит/сек
Дата кодирования : UTC 2018-04-01 18:11:48
Программа кодирования : mkvmerge v8.3.0 ('Over the Horizon') 64bit
Библиотека кодирования : libebml v1.3.1 + libmatroska v1.4.2

Видео
Идентификатор : 1
Формат : AVC
Формат/Информация : Advanced Video Codec
Профиль формата : High@L3.1
Параметр CABAC формата : Нет
Параметр RefFrames формата : 2 кадра
Идентификатор кодека : V_MPEG4/ISO/AVC
Продолжительность : 1 ч. 51 м.
Битрейт : 4067 Кбит/сек
Ширина : 1280 пикселей
Высота : 690 пикселей
Соотношение сторон : 1,85:1
Режим частоты кадров : Постоянный
Частота кадров : 23,976 (24000/1001) кадра/сек
Цветовое пространство : YUV
Субдискретизация насыщенности : 4:2:0
Битовая глубина : 8 бит
Тип развёртки : Прогрессивная
Бит/(Пиксели*Кадры) : 0.192
Размер потока : 3,16 Гбайт (91%)
Язык : English
Default : Да
Forced : Нет
Цветовой диапазон : Limited
Основные цвета : BT.709
Характеристики трансфера : BT.709
Коэффициенты матрицы : BT.709

Аудио
Идентификатор : 2
Формат : AC-3
Формат/Информация : Audio Coding 3
Расширение режима : CM (complete main)
Параметр Endianness формата : Big
Идентификатор кодека : A_AC3
Продолжительность : 1 ч. 51 м.
Вид битрейта : Постоянный
Битрейт : 384 Кбит/сек
Каналы : 6 каналов
Расположение каналов : Front: L C R, Side: L R, LFE
Частота : 48,0 КГц
Частота кадров : 31,250 кадров/сек (1536 spf)
Метод сжатия : С потерями
Размер потока : 306 Мбайт (9%)
Язык : Russian
Default : Да
Forced : Нет

Меню
00:00:00.000 : en:1
00:07:03.000 : en:2
00:17:45.000 : en:3
00:28:40.000 : en:4
00:39:22.000 : en:5
00:48:49.000 : en:6
01:00:00.000 : en:7
01:11:11.000 : en:8
01:21:15.000 : en:9
01:31:51.000 : en:10
01:43:16.000 : en:11

pb.wtf



Скачать Со дна вершины через торрент http://i100.fastpic.ru/big/2018/0401/95/7551090e9a05c5f737879c1d86d5f495.jpg Скачать фильм Со дна вершины через торрент бесплантно в хорошем качестве Описание: Алексей Царёв — семнадцатилетний лидер школы и подающий большие надежды чемпион юношеской сборной по горным лыжам. У Алексея есть ... 7 10 3
Торрент: Зарегистрирован [2018-04-02 04:06] · скачан: 198 раз
Статус: √ проверено
Размер: 3.46 GB
Как cкачать? Как скачать Со дна вершины через торрент | UTorrent

% Раздел Тема Автор DL S | L
Наши фильмы (HD, WEB-DL 720p, 1080p) [ 4.35 GB ] Со дна вершины [2018 WEB-DL 1080p] bober100 Скачать
1 | 0
Наши фильмы 2018-2019 [ 1.95 GB ] Со дна вершины [2018 WEB-DLRip-AVC] - ExKinoRay Enigma2010 Скачать
1 | 0
Наши фильмы 2018-2019 [ 1.46 GB ] Со дна вершины [2018 WEB-DLRip] bober100 Скачать
1 | 0
Наши фильмы 2018-2019 [ 2.05 GB ] Со дна вершины [2018 WEB-DLRip] bober100 Скачать
1 | 0

28-11-2019 20:33  

Отключить всю рекламу на сайте


02-04-2018 08:35 Со дна вершины Скачать торрент  

Какой имбецил название фильма придумал?pb.wtf



    Дорогой пользователь! Огромная просьба, поблагодарите релизера, оцените раздачу и оставьте свои комментарий, если Вы скачали Со дна вершины через торрент бесплатно! Внесите свою лепту в развитие PiratBit!
    Комментировать посты могут только пользователи прошедшие не сложную регистрацию
    Показать сообщения:    

    Со дна вершины через торрент
    Скачать бесплатно Со дна вершины
    Со дна вершины скачать торрент
    Со дна вершины смотреть онлайн
    Cкачать фильм Со дна вершины бесплатно
    Со дна вершины скачать торрент в хорошем качестве
    Со дна вершины смотреть онлайн бесплатно в хорошем качестве


    Вы не можете начинать темы
    Вы не можете отвечать на сообщения
    Вы не можете редактировать свои сообщения
    Вы не можете удалять свои сообщения
    Вы не можете голосовать в опросах
    Вы не можете прикреплять файлы к сообщениям
    Вы можете скачивать файлы