Ссылка на приватное зеркало нашего сайта всего за 1$. Внимание количество ограничено!!!

2 сезон

iTunes

1 сезон

1

2 сезон

2 сезон

iTunes

1 сезон

RePack

30

Ultimate

ВАЖНО

ИГРА 18+

pack

RePack

MK11
pack

Забери бонус

RePack

jed

!!Акция!!

Alien_Rage

RePack

fifa19

RePack

Assassins Creed: Odyssey

RePack

NEED FOR SPEED™ PAYBACK

4 сезон

9 сезон

Бесстыжие 9 сезон

Все сериалы

все сериалы на PB.wtf

RePack

FAR CRY 5
  

Стартап / Корпорация Алекса / Alex, Inc. / Сезон: 1 / Серии: 1-10 из 10 (Зак Брафф, Ричи Кин) [2018, комедия, WEB-DL 1080p] MVO [Jaskier] pb.wtf

Стартап через торрент pb.wtf

Размер: 17.28 GB | Добавлен: 2 года 5 мес. назад | Торрент скачан:12 раз
Скачать  

02-04-2018 05:31 Стартап Скачать торрент  

Стартап / Корпорация Алекса / Alex, Inc.Год выпуска: 2018
Страна: США
Жанр: комедия
Продолжительность: ~ 00:23:00
Перевод: Профессиональный (многоголосый) | Jaskier
Субтитры: отсутствуют

Режиссер: Зак Брафф, Ричи Кин

rating

В ролях:

Элиша Хениг, Одисси Джеймс, Зак Брафф, Coutney Shane, Тия Сиркар, Джон Патрик Джордан, Джессика Микайла Адамс, Надеж Огюст, Eleanor Koski, Анджали Бимани и др.

Описание:

Блестящий радиожурналист, муж и отец двоих детей скоро совершит нечто безумное — бросит работу и займется основанием собственной компании. Он быстро обнаруживает, что выполнить эту задачу будет намного сложнее, чем предполагалось.

Качество: WEB-DL 1080p
Формат: MKV

Видео: ~ 11000 kbps, 1920x1080, 23.976 fps
Аудио#1 Rus: AC3, 6 ch, 384 kbps
Аудио#2 Eng: AC3, 6 ch, 384 kbps
скриншот   скриншот   скриншот  

Общее
Уникальный идентификатор : 193722498817984946103727720213209080603 (0x91BD989C77BBF7A89AE07BDE68AEE31B)
Полное имя : D:\Alex Inc. Season 1 (WEB-DL l 1080p l Jaskier)\Alex.Inc.S01E01.1080p.WEB-DL.DD5.1.H.264-Jaskier.mkv
Формат : Matroska
Версия формата : Version 2
Размер файла : 1,85 Гбайт
Продолжительность : 22 м. 8 с.
Режим общего битрейта : Переменный
Общий поток : 11,9 Мбит/сек
Дата кодирования : UTC 2018-04-01 20:34:45
Программа кодирования : mkvmerge v7.8.0 ('River Man') 32bit built on Apr 3 2015 12:11:22
Библиотека кодирования : libebml v1.3.1 + libmatroska v1.4.2

Видео
Идентификатор : 1
Формат : AVC
Формат/Информация : Advanced Video Codec
Профиль формата : High@L4
Параметр CABAC формата : Да
Параметр RefFrames формата : 4 кадра
Идентификатор кодека : V_MPEG4/ISO/AVC
Продолжительность : 22 м. 8 с.
Вид битрейта : Переменный
Битрейт : 10,9 Мбит/сек
Максимальный битрейт : 15,0 Мбит/сек
Ширина : 1920 пикселей
Высота : 1080 пикселей
Соотношение сторон : 16:9
Режим частоты кадров : Постоянный
Частота кадров : 23,976 (24000/1001) кадра/сек
Цветовое пространство : YUV
Субдискретизация насыщенности : 4:2:0
Битовая глубина : 8 бит
Тип развёртки : Прогрессивная
Бит/(Пиксели*Кадры) : 0.220
Размер потока : 1,69 Гбайт (92%)
Язык : English
Default : Да
Forced : Нет
Цветовой диапазон : Limited
Основные цвета : BT.709
Характеристики трансфера : BT.709
Коэффициенты матрицы : BT.709

Аудио #1
Идентификатор : 2
Формат : AC-3
Формат/Информация : Audio Coding 3
Расширение режима : CM (complete main)
Параметр Endianness формата : Big
Идентификатор кодека : A_AC3
Продолжительность : 22 м. 8 с.
Вид битрейта : Постоянный
Битрейт : 384 Кбит/сек
Каналы : 6 каналов
Расположение каналов : Front: L C R, Side: L R, LFE
Частота : 48,0 КГц
Частота кадров : 31,250 кадров/сек (1536 spf)
Метод сжатия : С потерями
Размер потока : 60,8 Мбайт (3%)
Заголовок : Jaskier
Язык : Russian
Default : Да
Forced : Нет

Аудио #2
Идентификатор : 3
Формат : AC-3
Формат/Информация : Audio Coding 3
Расширение режима : CM (complete main)
Параметр Endianness формата : Big
Идентификатор кодека : A_AC3
Продолжительность : 22 м. 8 с.
Вид битрейта : Постоянный
Битрейт : 384 Кбит/сек
Каналы : 6 каналов
Расположение каналов : Front: L C R, Side: L R, LFE
Частота : 48,0 КГц
Частота кадров : 31,250 кадров/сек (1536 spf)
Метод сжатия : С потерями
Размер потока : 60,8 Мбайт (3%)
Язык : English
Default : Нет
Forced : Нет

Внимание! Раздача ведётся путём добавления новых серий; при каждом добавлении создаётся новый торрент. Чтобы начать докачку новой серии, пользователям необходимо сделать следующее:
(1) остановить скачивание,
(2) удалить старый торрент у себя из клиента (старые серии удалять не надо),
(3) скачать новый торрент и запустить его у себя в клиенте вместо старого, при этом указать клиенту путь в старую папку куда и должно происходить скачивание новых серий.
Ваш клиент при этом должен произвести хеширование (проверку) старой папки (если не производит сам - помогите ему сделать это), и будет докачивать только те серии которых у вас ещё нет. Старые серии при этом не удаляются, а продолжают раздаваться!
Eсли вы уже удалили старые серии, то предотвратить повторную закачку старых серий можно, отжав галочку в соответствующих местах при запуске нового торрента. По возможности, желательно не удалять старые серии как можно дольше чтобы релизёр не столько продолжал раздавать старые серии, а смог сконцентрироваться на новых.
pb.wtf



Скачать Стартап через торрент http://i100.fastpic.ru/big/2018/0401/b3/b259c897e04d13897e044d5f99dc75b3.png Скачать фильм Стартап через торрент бесплантно в хорошем качестве Описание: Блестящий радиожурналист, муж и отец двоих детей скоро совершит нечто безумное — бросит работу и займется основанием собственной ... 7.3 10 6
Торрент: Зарегистрирован [2018-05-26 21:01] · скачан: 12 раз
Статус: √ проверено
Размер: 17.28 GB
Как cкачать? Как скачать Стартап через торрент | qTorrent

% Раздел Тема Автор DL S | L
Зарубежные сериалы [ 2.74 GB ] Стартап / Корпорация Алекса / Alex Inc. / Сезон: 1 / Серии: 1-10 из 10 [2018 WEB-DLRip] MVO [Jaskier] bober100 Скачать
1 | 0


Последний раз редактировалось: bober100 (2018-05-26 21:01), всего редактировалось 5 раз(а)

28-11-2019 20:33  

Отключить всю рекламу на сайте

07-04-2018 07:03 Стартап Скачать торрент  

Капец порадовали!!! Думал что настоящий Стартап вышел!!!pb.wtf



14-05-2018 15:30 Стартап Скачать торрент  

Byharin07 писал(а):

Капец порадовали!!! Думал что настоящий Стартап вышел!!!

Тот закрылиpb.wtf



    Дорогой пользователь! Огромная просьба, поблагодарите релизера, оцените раздачу и оставьте свои комментарий, если Вы скачали Стартап через торрент бесплатно! Внесите свою лепту в развитие PiratBit!
    Комментировать посты могут только пользователи прошедшие не сложную регистрацию
    Показать сообщения:    

    Стартап через торрент
    Скачать бесплатно Стартап
    Стартап скачать торрент
    Стартап смотреть онлайн
    Cкачать фильм Стартап бесплатно
    Стартап скачать торрент в хорошем качестве
    Стартап смотреть онлайн бесплатно в хорошем качестве


    Вы не можете начинать темы
    Вы не можете отвечать на сообщения
    Вы не можете редактировать свои сообщения
    Вы не можете удалять свои сообщения
    Вы не можете голосовать в опросах
    Вы не можете прикреплять файлы к сообщениям
    Вы можете скачивать файлы