Ссылка на приватное зеркало всего за 1$. Внимание количество ограничено!!!

OK

1+1

iTunes

мы

OK

1

WEB-DLRip

Джокер

Пифагор

Ведьмак / The Witcher сериал

iTunes

ПШазам

ОК

Оно 2

iTunes

30
pack

Вам бонус

ВАЖНО

!!Акция!!

Alien_RageХит недели

RePack

Resident Evil 21

ИГРА 18+

pack

RePack

jed

RePack

fifa19

RePack

Assassins Creed: Odyssey

RePack

NEED FOR SPEED™ PAYBACK

4 сезон

9 сезон

Бесстыжие 9 сезон

Все сериалы

все сериалы на PB.wtf

RePack

FAR CRY 5
  

Детектив из Чайнатауна 2 / Tang ren jie tan an 2 (Чэнь Сычэн) [2018, комедия, боевик, детектив, TC 720p] MVO [КОЛОБОК] pb.wtf

Детектив из Чайнатауна 2 через торрент pb.wtf

Размер: 3.49 GB | Добавлен: 1 год 9 мес. назад | Торрент скачан:32 раза
Скачать  

02-04-2018 06:35 Детектив из Чайнатауна 2 Скачать торрент  

Детектив из Чайнатауна 2 / Tang ren jie tan an 2Год выпуска: 2018
Страна: Китай
Жанр: комедия, боевик, детектив
Продолжительность: 02:04:11
Перевод: Любительский (многоголосый) | КОЛОБОК
Субтитры: Китайские, английские (хардсаб)

Режиссер: Чэнь Сычэн

rating

В ролях:

Ван Баоцян, Лю Хаожань, Сяо Ян, Наташа Лю Бордиццо, Шан Юйсянь, Ван Сюнь, Тун Лия, Сатоси Цумабуки, Майкл Питт, Юэнь Ва

Описание:

Иногда мечта человека является настолько искренней, что обязательно исполняется. Вот и главный герой этого комедийного боевика — Цин Фэнь — очень хотел поступить в полицейскую академию. Но ему постоянно не везло, и он проваливал вступительные экзамены. После очередного провала парень принял решение сделать перерыв, и улетел к двоюродному брату в Бангкок. Тан Жэнь трудился детективом, и считался одним из самых лучших офицеров. Вот только отдохнуть кузенам не дали. Дело в том, что полицейского обвинили в краже золота, а также жестоком убийстве. Конечно же, брат героя не был виноват, и его просто подставили. Прилетевший родственник включается в опасное расследование, и вскоре блестяще раскрывает его. Конечно, ему по большей части повезло, но результат от этого не становится хуже. Обвинения снимают, а талантливого юношу выделяют из толпы абитуриентов, и он, наконец-то, оказывается зачисленным в академию. Радости нет предела, да и новенькая форма очень к лицу красавцу.

Качество: TC 720p
Формат: MKV

Видео: 3636 Кбит/с, 1280x536
Аудио#1: AC3, 2 ch, 384 Кбит/с
скриншот  скриншот  скриншот  

Общее
Уникальный идентификатор : 175920655299025558836072911327768906680 (0x845915F62E21FEE7BCE5DD02B4148BB8)
Полное имя : D:\Detective.Chinatown.Vol.2.2018.Pk.TC.72Op_KOSHARA.mkv
Формат : Matroska
Версия формата : Version 2
Размер файла : 3,49 Гбайт
Продолжительность : 2 ч. 4 м.
Режим общего битрейта : Переменный
Общий поток : 4022 Кбит/сек
Дата кодирования : UTC 2018-04-01 02:54:02
Программа кодирования : mkvmerge v8.3.0 ('Over the Horizon') 64bit
Библиотека кодирования : libebml v1.3.1 + libmatroska v1.4.2

Видео
Идентификатор : 1
Формат : AVC
Формат/Информация : Advanced Video Codec
Профиль формата : High@L4.1
Параметр CABAC формата : Да
Параметр RefFrames формата : 4 кадра
Идентификатор кодека : V_MPEG4/ISO/AVC
Продолжительность : 2 ч. 4 м.
Вид битрейта : Переменный
Битрейт : 3636 Кбит/сек
Максимальный битрейт : 4000 Кбит/сек
Ширина : 1280 пикселей
Высота : 536 пикселей
Соотношение сторон : 2,40:1
Режим частоты кадров : Постоянный
Частота кадров : 23,976 (24000/1001) кадра/сек
Стандарт вещания : Component
Цветовое пространство : YUV
Субдискретизация насыщенности : 4:2:0
Битовая глубина : 8 бит
Тип развёртки : Прогрессивная
Бит/(Пиксели*Кадры) : 0.216
Размер потока : 3,09 Гбайт (88%)
Default : Да
Forced : Нет
Цветовой диапазон : Limited
Основные цвета : BT.709
Характеристики трансфера : BT.709
Коэффициенты матрицы : BT.709

Аудио
Идентификатор : 2
Формат : AC-3
Формат/Информация : Audio Coding 3
Расширение режима : CM (complete main)
Параметр Endianness формата : Big
Идентификатор кодека : A_AC3
Продолжительность : 2 ч. 4 м.
Вид битрейта : Постоянный
Битрейт : 384 Кбит/сек
Каналы : 2 канала
Расположение каналов : Front: L R
Частота : 48,0 КГц
Частота кадров : 31,250 кадров/сек (1536 spf)
Метод сжатия : С потерями
Размер потока : 341 Мбайт (10%)
Default : Да
Forced : Нет

pb.wtf



Скачать Детектив из Чайнатауна 2 через торрент http://img12.lostpic.net/2018/04/02/cef82326343ee4028c8216c229cec0e5.jpg Скачать фильм Детектив из Чайнатауна 2 через торрент бесплантно в хорошем качестве Описание: Иногда мечта человека является настолько искренней, что обязательно исполняется. Вот и главный герой этого комедийного боевика — ... 9.3 10 3
Торрент: Зарегистрирован [2018-04-02 06:35] · скачан: 32 раз
Статус: T временная
Размер: 3.49 GB
Как cкачать? Как скачать Детектив из Чайнатауна 2 через торрент | qTorrent

% Раздел Тема Автор DL S | L
T Фильмы (мультфильмы) cо спонсором показа (Новинки AVI/MKV) [ 1.37 GB ] из Чайнатауна 2 / Tang ren jie tan an 2 [2018 TC] MVO [КОЛОБОК] bober100 Скачать
1 | 0
T Фильмы (мультфильмы) cо спонсором показа (Новинки AVI/MKV) [ 2.05 GB ] из Чайнатауна 2 / Tang ren jie tan an 2 [2018 TC] MVO [КОЛОБОК] bober100 Скачать
1 | 0

28-11-2019 20:33  

Отключить всю рекламу на сайте

    Дорогой пользователь! Огромная просьба, поблагодарите релизера, оцените раздачу и оставьте свои комментарий, если Вы скачали Детектив из Чайнатауна 2 через торрент бесплатно! Внесите свою лепту в развитие PiratBit!
    Комментировать посты могут только пользователи прошедшие не сложную регистрацию
    Показать сообщения:    

    Детектив из Чайнатауна 2 через торрент
    Скачать бесплатно Детектив из Чайнатауна 2
    Детектив из Чайнатауна 2 скачать торрент
    Детектив из Чайнатауна 2 смотреть онлайн
    Cкачать фильм Детектив из Чайнатауна 2 бесплатно
    Детектив из Чайнатауна 2 скачать торрент в хорошем качестве
    Детектив из Чайнатауна 2 смотреть онлайн бесплатно в хорошем качестве


    Вы не можете начинать темы
    Вы не можете отвечать на сообщения
    Вы не можете редактировать свои сообщения
    Вы не можете удалять свои сообщения
    Вы не можете голосовать в опросах
    Вы не можете прикреплять файлы к сообщениям
    Вы можете скачивать файлы