Ссылка на приватное зеркало всего за 1$. Внимание количество ограничено!!!

OK

1+1

iTunes

мы

OK

1

WEB-DLRip

Джокер

Пифагор

Ведьмак / The Witcher сериал

iTunes

ПШазам

ОК

Оно 2

iTunes

30
pack

Вам бонус

ВАЖНО

!!Акция!!

Alien_RageХит недели

RePack

Resident Evil 21

ИГРА 18+

pack

RePack

jed

RePack

fifa19

RePack

Assassins Creed: Odyssey

RePack

NEED FOR SPEED™ PAYBACK

4 сезон

9 сезон

Бесстыжие 9 сезон

Все сериалы

все сериалы на PB.wtf

RePack

FAR CRY 5
  

Падмавати / Padmaavat (Санджай Лила Бхансали) [2018 г., Драма, Мелодрама, WEB-DLRip, Любительский (многоголосый) Синема УС] pb.wtf

Падмавати через торрент pb.wtf

Размер: 1.37 GB | Добавлен: 1 год 9 мес. назад | Торрент скачан:195 раз
Скачать  

02-04-2018 07:14 Падмавати Скачать торрент  

Падмавати / Padmaavat
Год выпуска: 2018
Страна: Индия
Жанр: Драма, Мелодрама
Продолжительность: 02:45:07
Перевод: Любительский (многоголосый) Синема УС
Субтитры: отсутствуют

Режиссер: Санджай Лила Бхансали

rating

Релиз от: Синема УС

В ролях: Дипика Падукон, Ануприя Гоенка, Ранвир Сингх, Шахид Капур, Адити Рао Хидари, Джим Сарбх, Раза Мурад, Шархан Сингх, Манджит Сингх, Падмавати Рао

Описание: 1303 год. Могущественный султан Алауддин Чирджи, завоевавший половину Индии, поддается сладким речам изгнанного из Читторгарха, что его могущество только будет расти, если рядом с ним будет красавица Падмавати, жена правителя Раваны Сингха. С этого момента султан становится одержим идеей захватить Падмавати. Он приводит свои войска к стенам крепости Читторгарх и обещает её правителю не разрушать город, если тот отдаст ему собственную жену.

Доп. информация: присутствуют аудио и видео вставки рекламы

Качество: WEB-DLRip
Формат: AVI
Видео кодек: XviD
Аудио кодек: AC3
Видео: Xvid, 720x304, ~1048 Kbps
Аудио#1: AC3, 2 ch, 128 Kbps
скриншот  скриншот   скриншот  скриншот  

Общее
Полное имя : J:\Padmavati.2018.P.WEB-DLRip.avi
Формат : AVI
Формат/Информация : Audio Video Interleave
Размер файла : 1,37 Гбайт
Продолжительность : 2 ч. 45 м.
Общий поток : 1185 Кбит/сек
Программа кодирования : VirtualDubMod 1.5.10.2 (build 2540/release)
Библиотека кодирования : VirtualDubMod build 2540/release

Видео
Идентификатор : 0
Формат : MPEG-4 Visual
Профиль формата : Advanced Simple@L5
Параметр BVOP формата : 2
Параметр QPel формата : Нет
Параметр GMC формата : Без точки перехода
Параметр матрицы формата : Default (MPEG)
Идентификатор кодека : XVID
Идентификатор кодека/Подсказка : XviD
Продолжительность : 2 ч. 45 м.
Битрейт : 1048 Кбит/сек
Ширина : 720 пикселей
Высота : 304 пикселя
Соотношение сторон : 2,35:1
Частота кадров : 23,976 (24000/1001) кадра/сек
Цветовое пространство : YUV
Субдискретизация насыщенности : 4:2:0
Битовая глубина : 8 бит
Тип развёртки : Прогрессивная
Метод сжатия : С потерями
Бит/(Пиксели*Кадры) : 0.200
Размер потока : 1,21 Гбайт (88%)
Библиотека кодирования : XviD 1.2.1 (UTC 2008-12-04)

Аудио
Идентификатор : 1
Формат : AC-3
Формат/Информация : Audio Coding 3
Расширение режима : CM (complete main)
Параметр Endianness формата : Big
Идентификатор кодека : 2000
Продолжительность : 2 ч. 45 м.
Вид битрейта : Постоянный
Битрейт : 128 Кбит/сек
Каналы : 2 канала
Расположение каналов : Front: L R
Частота : 48,0 КГц
Частота кадров : 31,250 кадров/сек (1536 spf)
Метод сжатия : С потерями
Размер потока : 151 Мбайт (11%)
Выравнивание : Разделение по промежуткам
Продолжительность промежутка : 42 мс. (1,00 видеокадр)
Время предзагрузки промежутка : 500 мс.

pb.wtf



Скачать Падмавати через торрент http://img12.lostpic.net/2018/04/02/4724bb1e1034281fd58539dcaad19ea4.jpg Скачать фильм Падмавати через торрент бесплантно в хорошем качестве Описание: 1303 год. Могущественный султан Алауддин Чирджи, завоевавший половину Индии, поддается сладким речам изгнанного из Читторгарха, ... 10 10 1
Торрент: Зарегистрирован [2018-04-02 07:14] · скачан: 195 раз
Статус: T временная
Размер: 1.37 GB
Как cкачать? Как скачать Падмавати через торрент | qTorrent

28-11-2019 20:33  

Отключить всю рекламу на сайте

02-04-2018 10:12 Падмавати Скачать торрент  

скоро индусы с китайцами положат гАливут на лопатки и помочатся на него.pb.wtf



14-04-2018 17:08 Падмавати Скачать торрент  

Чтоб убедиться, надо всем посмотреть Подмыватиpb.wtf



    Дорогой пользователь! Огромная просьба, поблагодарите релизера, оцените раздачу и оставьте свои комментарий, если Вы скачали Падмавати через торрент бесплатно! Внесите свою лепту в развитие PiratBit!
    Комментировать посты могут только пользователи прошедшие не сложную регистрацию
    Показать сообщения:    

    Падмавати через торрент
    Скачать бесплатно Падмавати
    Падмавати скачать торрент
    Падмавати смотреть онлайн
    Cкачать фильм Падмавати бесплатно
    Падмавати скачать торрент в хорошем качестве
    Падмавати смотреть онлайн бесплатно в хорошем качестве


    Вы не можете начинать темы
    Вы не можете отвечать на сообщения
    Вы не можете редактировать свои сообщения
    Вы не можете удалять свои сообщения
    Вы не можете голосовать в опросах
    Вы не можете прикреплять файлы к сообщениям
    Вы можете скачивать файлы