новый адрес
Ссылка на приватное зеркало всего за 1$. Внимание количество ограничено!!!

iTunes

1+1

iTunes

мы

iTunes

1

iTunes

Чернобыль

iTunes

Ральф против интернета

Лицензия

ПШазам

Лицензия

Оно 2

Лицензия

30
pack

Вам бонус

ВАЖНО

!!Акция!!

Alien_RageХит недели

RePack

Resident Evil 21

ИГРА 18+

pack

RePack

jed

!!Акция!!

Alien_Rage

RePack

fifa19

RePack

Assassins Creed: Odyssey

RePack

NEED FOR SPEED™ PAYBACK

3 сезон

9 сезон

Бесстыжие 9 сезон

Все сериалы

все сериалы на PB.wtf

RePack

FAR CRY 5
Ребята, катастрофически не хватает 1900р. для оплаты серверов за Октябрь (всвязи с блокировками трафик упал в 3 раза), 1-2р., выручайте.
  

Кровь людская - не водица (Николай Макаренко) [1960, СССР, драма, VHSRip от AVP Studio] pb.wtf

Кровь людская - не водица через торрент pb.wtf

Размер: 1.09 GB | Добавлен: 1 год 7 мес. назад | Торрент скачан:16 раз
Скачать  

02-04-2018 08:35 Кровь людская - не водица Скачать торрент  

Кровь людская - не водица
Страна: СССР
Производство: К/ст им. Довженко

Жанр: драма
Год выпуска: 1960
Продолжительность: 01:29:29

Перевод: Не требуется
Cубтитры: нет
Оригинальная аудиодорожка: русский

Режиссер: Николай Макаренко

В ролях:
Евгений Бондаренко, Генрих Осташевский, Анатолий Соловьёв, Карина Шмаринова, Леонид Тарабаринов, Николай Талюра, Фёдор Ищенко, Пётр Вескляров, Антон Король, Полина Куманченко, Алексей Срибный, Аркадий Гашинский, Домиан Козачковский, Александр Гай, Владимир Дальский, С. Брусиловский, Иван Покора, М. Хорош, Николай Пишванов, Дмитрий Гнатюк...
Об актёрах подробней

Описание:
По мотивам одноименного романа М.Стельмаха. Первый фильм кинотрилогии: «Кровь людская — не водица», «Дмитро Горицвит», «Люди не все знают».
Осень 1920 года. Данило Пидопригора, сотник головного атамана Петлюры, возвращается в село Новобуговку с твердым намерением раскаяться во всем. Но как примут его односельчане, ждет ли молодая жена его возвращения? Радостным оказалось возвращение Данилы домой, к любящей жене. В ЧК поверили раскаявшемуся петюровцу и предложили учительствовать в селе.

Исходник: S-VHS
Качество видео: VHSRip
Формат видео: AVI

Видео: 720x544 (4:3), 25,000 кадров/сек, XviD ~ 1542 kbps avg, 0.157 bit/pixel
Аудио: 48 kHz, Dolby Digital AC3 2.0, 192 kbps

Раздача от:
Общее
Полное имя : Krov.lyudskaya-ne.vodica.1960.VHSRip_[New-team]_by_AVP_Studio.avi
Формат : AVI
Формат/Информация : Audio Video Interleave
Размер файла : 1,09 Гбайт
Продолжительность : 1 ч. 29 м.
Общий поток : 1743 Кбит/сек
Программа кодирования : VirtualDubMod 1.5.10.3 | www.virtualdub-fr.org || (build 2550/release)
Библиотека кодирования : VirtualDubMod build 2550/release

Видео
Идентификатор : 0
Формат : MPEG-4 Visual
Профиль формата : Advanced Simple@L5
Настройки формата : BVOP1 / Custom Matrix
Параметр BVOP формата : 1
Параметр QPel формата : Нет
Параметр GMC формата : Без точки перехода
Параметр матрицы формата : Выборочная
Идентификатор кодека : XVID
Идентификатор кодека/Подсказка : XviD
Продолжительность : 1 ч. 29 м.
Битрейт : 1542 Кбит/сек
Ширина : 720 пикселей
Высота : 544 пикселя
Соотношение сторон : 4:3
Частота кадров : 25,000 кадров/сек
Цветовое пространство : YUV
Субдискретизация насыщенности : 4:2:0
Битовая глубина : 8 бит
Тип развёртки : Прогрессивная
Метод сжатия : С потерями
Бит/(Пиксели*Кадры) : 0.157
Размер потока : 987 Мбайт (88%)
Библиотека кодирования : XviD 73

Аудио
Идентификатор : 1
Формат : AC-3
Формат/Информация : Audio Coding 3
Идентификатор кодека : 2000
Продолжительность : 1 ч. 29 м.
Вид битрейта : Постоянный
Битрейт : 192 Кбит/сек
Каналы : 2 канала
Расположение каналов : Front: L R
Частота : 48,0 КГц
Частота кадров : 31,250 кадров/сек (1536 SPF)
Битовая глубина : 16 бит
Метод сжатия : С потерями
Размер потока : 123 Мбайт (11%)
Выравнивание : Разделение по промежуткам
Продолжительность промежутка : 40 мс. (1,00 видеокадр)
Время предзагрузки промежутка : 500 мс
pb.wtf



Скачать Кровь людская - не водица через торрент http://i3.imageban.ru/out/2018/04/02/54091f96ec5d4f1a282937f354e19f1b.png Скачать фильм Кровь людская - не водица через торрент бесплантно в хорошем качестве Описание:По мотивам одноименного романа М.Стельмаха. Первый фильм кинотрилогии: «Кровь людская — не водица», «Дмитро Горицвит», «Люди не ... 10 10 1
Info! Золотая раздача, скачанное не засчитывается.
Торрент: Зарегистрирован [2018-04-02 08:35] · скачан: 16 раз
Статус: √ проверено
Размер: 1.09 GB
Как cкачать? Как скачать Кровь людская - не водица через торрент | qTorrent

% Раздел Тема Автор DL S | L
Кино СССР [ 1.09 GB ] Кровь людская - не водица [1960 СССР VHSRip-AVC от AVP Studio] AVP Studio Скачать
1 | 0


>> Регистрируемся здесь <<






Отзывы и комментарии о схеме читаем и пишем здесь: ---> Отзывы и комментарии о схеме

Новые благодарочки в телеграм довольных пользователей:
скриншот   скриншот   скриншот   скриншот   скриншот

02-04-2018 16:11 Кровь людская - не водица Скачать торрент  

Так себе фильм ... ))))pb.wtf



    Дорогой пользователь! Огромная просьба, поблагодарите релизера, оцените раздачу и оставьте свои комментарий, если Вы скачали Кровь людская - не водица через торрент бесплатно! Внесите свою лепту в развитие PiratBit!
    Комментировать посты могут только пользователи прошедшие не сложную регистрацию
    Показать сообщения:    

    Кровь людская - не водица через торрент
    Скачать бесплатно Кровь людская - не водица
    Кровь людская - не водица скачать торрент
    Кровь людская - не водица смотреть онлайн
    Cкачать фильм Кровь людская - не водица бесплатно
    Кровь людская - не водица скачать торрент в хорошем качестве
    Кровь людская - не водица смотреть онлайн бесплатно в хорошем качестве


    Вы не можете начинать темы
    Вы не можете отвечать на сообщения
    Вы не можете редактировать свои сообщения
    Вы не можете удалять свои сообщения
    Вы не можете голосовать в опросах
    Вы не можете прикреплять файлы к сообщениям
    Вы можете скачивать файлы