Anonymous, добрый вечер, присоединяйтесь к нам в Telegram!, здесь всегда актуальный адрес сайта, оперативная поддержка и многое другое!

>

5.6

iTunes

7.4

MVO

5.7

MVO

1

7.7

1 сезон

6.8

iTunes

7.3

1 сезон

13

6.7

1 сезон

8.3

RePack

30

ULTIMATE

pack

9.9

Лицензия

ВАЖНО

ИГРА 18+

pack

7.3

RePack

MK11

7.7

RePack

jed

7.8

RePack

fifa19

8.5

RePack

RDR2

RePack

NEED FOR SPEED™ PAYBACK

4 сезон

9 сезон

Бесстыжие 9 сезон

Все сериалы

все сериалы на PB.wtf

RePack

FAR CRY 5

Anonymous, добрый вечер, мы катастрофически не успеваем собрать деньги на оплату серверов, помогите нам пожалуйста 5,10,15р., для нас важна любая помощь . В качестве благодарности мы отключим Вам всю рекламу на сайте (укажите свой ник в строку Ваше имя)!

×
  
Magnet ссылка

Универ. Новая общага / Сезон: 14 / Серии: 1-18 из 18 (Константин Смирнов) [2018, Ситком, комедия, SATRip] pb.wtf

Универ. Новая общага через торрент pb.wtf

Размер: 5.8 GB | Добавлен: 3 года 5 мес. назад | Торрент скачан:97 раз
Смотреть онлайн Универ. Новая общага | Скачать    Ребята, помогите собрать деньги на оплату серверов!!!

02-04-2018 11:20 Универ. Новая общага Скачать торрент  

Универ. Новая общага
Год выпуска: 2018
Страна: Россия
Жанр: Ситком, комедия
Продолжительность: ~ 00:25:00
Субтитры: отсутствуют

Режиссер: Константин Смирнов



В ролях:

Арарат Кещян, Александр Стекольников, Станислав Ярушин, Анна Кузина, Анна Хилькевич, Константин Шелягин, Григорий Кокоткин, Елена Валюшкина, Сергей Пиоро, Сергей Мурзин

Описание:

Майкл и Антон ищут в кафе крота, Маша и Валя думают о свадьбе, Артем Ребров больше не звезда «Универ ТВ», а Ника возглавит новый телеканал.

Качество: SATRip
Формат: AVI

Видео: ~ 1750 Кбит/с, 720x400
Аудио: МР3, 2 ch, 192 Кбит/с
скриншот   скриншот   скриншот   скриншот   скриншот   скриншот   скриншот  
скриншот  

Общее
Полное имя : D:\Univer.s14.SATRip\Univer.s14.01.SATRip.avi
Формат : AVI
Формат/Информация : Audio Video Interleave
Размер файла : 309 Мбайт
Продолжительность : 22 м. 9 с.
Общий поток : 1952 Кбит/сек
Программа кодирования : VirtualDubMod 1.5.10.3 | www.virtualdub-fr.org || (build 2550/release)
Библиотека кодирования : VirtualDub build 29808/release

Видео
Идентификатор : 0
Формат : MPEG-4 Visual
Профиль формата : Advanced Simple@L5
Параметр BVOP формата : 2
Параметр QPel формата : Нет
Параметр GMC формата : Без точки перехода
Параметр матрицы формата : Default (H.263)
Идентификатор кодека : XVID
Идентификатор кодека/Подсказка : XviD
Продолжительность : 22 м. 9 с.
Битрейт : 1750 Кбит/сек
Ширина : 720 пикселей
Высота : 400 пикселей
Соотношение сторон : 16:9
Частота кадров : 25,000 кадров/сек
Цветовое пространство : YUV
Субдискретизация насыщенности : 4:2:0
Битовая глубина : 8 бит
Тип развёртки : Прогрессивная
Метод сжатия : С потерями
Бит/(Пиксели*Кадры) : 0.243
Размер потока : 277 Мбайт (90%)
Библиотека кодирования : XviD 1.2.1 (UTC 2008-12-04)

Аудио
Идентификатор : 1
Формат : MPEG Audio
Версия формата : Version 1
Профиль формата : Layer 3
Режим : Joint stereo
Идентификатор кодека : 55
Идентификатор кодека/Подсказка : MP3
Продолжительность : 22 м. 9 с.
Вид битрейта : Постоянный
Битрейт : 192 Кбит/сек
Каналы : 2 канала
Частота : 48,0 КГц
Метод сжатия : С потерями
Размер потока : 30,4 Мбайт (10%)
Выравнивание : Соединение по промежуткам
Продолжительность промежутка : 40 мс. (1,00 видеокадр)
Время предзагрузки промежутка : 504 мс.
Библиотека кодирования : LAME3.99r
Настройки программы : -m j -V 4 -q 9 -lowpass 18.6 -b 192

нимание! Раздача ведётся путём добавления новых серий; при каждом добавлении создаётся новый торрент. Чтобы начать докачку новой серии, пользователям необходимо сделать следующее:
(1) остановить скачивание,
(2) удалить старый торрент у себя из клиента (старые серии удалять не надо),
(3) скачать новый торрент и запустить его у себя в клиенте вместо старого, при этом указать клиенту путь в старую папку куда и должно происходить скачивание новых серий.
Ваш клиент при этом должен произвести хеширование (проверку) старой папки (если не производит сам - помогите ему сделать это), и будет докачивать только те серии которых у вас ещё нет. Старые серии при этом не удаляются, а продолжают раздаваться!
Eсли вы уже удалили старые серии, то предотвратить повторную закачку старых серий можно, отжав галочку в соответствующих местах при запуске нового торрента. По возможности, желательно не удалять старые серии как можно дольше чтобы релизёр не столько продолжал раздавать старые серии, а смог сконцентрироваться на новых.
pb.wtf



Скачать Универ. Новая общага через торрент http://i97.fastpic.ru/big/2017/1107/a5/6f91eff282aace4899a96d72d928c2a5.png Скачать, смотреть онлайн Универ. Новая общага бесплантно в хорошем качестве Описание: Майкл и Антон ищут в кафе крота, Маша и Валя думают о свадьбе, Артем Ребров больше не звезда «Универ ТВ», а Ника возглавит новый ... 8.1 10 27
Info! Золотая раздача, скачанное не засчитывается.
Торрент: Зарегистрирован [2018-04-19 17:15] · скачан: 97 раз
Статус: √ проверено
Размер: 5.8 GB
Как cкачать? Как скачать Универ. Новая общага через торрент | UTorrent

% Раздел Тема Автор DL S | L
TNT serials [ 24.21 GB ] Универ. Новая общага / Сезон: 14 / Серии: 1-18 из 18 [2018 Ситком HDTV 1080i] bober100 Скачать
1 | 0
TNT serials [ 12.38 GB ] Универ. Новая общага / Сезон: 14 / Серии: 1-18 из 18 [2018 Ситком HDTVRip 720p] bober100 Скачать
1 | 0
TNT serials [ 6.48 GB ] Универ. Новая общага / Сезон: 14 / Серии: 1-18 из 18 [2018 Ситком HDTVRip-AVC] bober100 Скачать
1 | 0
TNT serials [ 11.41 GB ] Универ. Новая общага / Сезон: 14 / Серии: 1-18 из 18 [2018 Ситком WEB-DL 720p] bober100 Скачать
1 | 0
TNT serials [ 5.58 GB ] Универ. Новая общага / Сезон: 14 / Серии: 1-18 из 18 [2018 Ситком WEB-DLRip] bober100 Скачать
1 | 0
TNT serials [ 4.13 GB ] Универ. Новая общага / Сезон: 14 / Серии: 1-18 из 18 + Спец. выпуск [2018 Ситком HDTVRip] bober100 Скачать
1 | 0


Последний раз редактировалось: bober100 (2018-04-19 17:15), всего редактировалось 8 раз(а)

28-11-2019 20:33  

Отключить всю рекламу на сайте

02-04-2018 11:38 Универ. Новая общага Скачать торрент  

уже фуфуло начали полное делать, раньше сериал был хороший, но скатился.pb.wtf



02-04-2018 12:47 Универ. Новая общага Скачать торрент  

спасибо, а вторую серию добавите ?pb.wtf



10-04-2018 00:20 Универ. Новая общага Скачать торрент  

Артистам под 40-роковник. Какие с них студенты? Кто снимает и кто снимается в "этом" с головой дружат? Давно закрыть пора сериал. Или назвать "Студенты ставшие пенсионерами"!pb.wtf



    Дорогой пользователь! Огромная просьба, поблагодарите релизера, оцените раздачу и оставьте свои комментарий, если Вы скачали Универ. Новая общага через торрент бесплатно!
    Комментировать посты могут только пользователи прошедшие не сложную регистрацию
    Показать сообщения:    

    Универ. Новая общага через торрент
    Скачать бесплатно Универ. Новая общага
    Универ. Новая общага скачать торрент
    Универ. Новая общага смотреть онлайн
    Cкачать фильм Универ. Новая общага бесплатно
    Универ. Новая общага скачать торрент в хорошем качестве
    Универ. Новая общага смотреть онлайн бесплатно в хорошем качестве


    Вы не можете начинать темы
    Вы не можете отвечать на сообщения
    Вы не можете редактировать свои сообщения
    Вы не можете удалять свои сообщения
    Вы не можете голосовать в опросах
    Вы не можете прикреплять файлы к сообщениям
    Вы можете скачивать файлы