Ссылка на приватное зеркало всего за 1$. Внимание количество ограничено!!!

OK

1+1

iTunes

мы

OK

1

WEB-DLRip

Джокер

Пифагор

Ведьмак / The Witcher сериал

iTunes

ПШазам

ОК

Оно 2

iTunes

30
pack

Вам бонус

ВАЖНО

!!Акция!!

Alien_RageХит недели

RePack

Resident Evil 21

ИГРА 18+

pack

RePack

jed

RePack

fifa19

RePack

Assassins Creed: Odyssey

RePack

NEED FOR SPEED™ PAYBACK

4 сезон

9 сезон

Бесстыжие 9 сезон

Все сериалы

все сериалы на PB.wtf

RePack

FAR CRY 5
  

Счастливой годовщины / Happy Anniversary (Джаред Штерн) [2018, комедия, WEB-DL 720p] MVO ["Синема УС"] pb.wtf

Счастливой годовщины через торрент pb.wtf

Размер: 2.7 GB | Добавлен: 1 год 9 мес. назад | Торрент скачан:46 раз
Скачать  

02-04-2018 12:03 Счастливой годовщины Скачать торрент  

Счастливой годовщины / Happy AnniversaryГод выпуска: 2018
Страна: США
Жанр: комедия
Продолжительность: 01:20:25
Перевод: Любительский (многоголосый) | "Синема УС"
Субтитры: отсутствуют

Режиссер: Джаред Штерн

rating


В ролях:

Энни Поттс, Джо Пантольяно, Исидора Горештер, Бен Шварц, Ноэль Кристи Уэллс, Рахул Коли, Леонардо Нам, Кейт Берлант, Хилэйн Лембек, Молли Шрайбер

Описание:

Что случается с отношениями, когда проходит первое впечатление от партнёра и заканчивается конфетно-букетный период? Начинается самое интересное: постоянные ссоры, недомолвки, и самое главное - необходимость принятия серьёзного решения. Стоит ли продолжать отношения или лучше со всем покончить?

Качество: WEB-DL 720p
Формат: MKV

Видео: 4416 Кбит/с, 1280x672
Аудио#1: AC3, 2 ch, 384 Кбит/с
скриншот  скриншот  скриншот  

Общее
Уникальный идентификатор : 249543166270590635962706274549593504802 (0xBBBC440093313266B6816C7175137C22)
Полное имя : D:\Happy.Anniversary.2018.P.WEB-DL.72Op_KOSHARA.mkv
Формат : Matroska
Версия формата : Version 2
Размер файла : 2,70 Гбайт
Продолжительность : 1 ч. 20 м.
Режим общего битрейта : Переменный
Общий поток : 4802 Кбит/сек
Дата кодирования : UTC 2018-04-01 18:18:21
Программа кодирования : mkvmerge v8.3.0 ('Over the Horizon') 64bit
Библиотека кодирования : libebml v1.3.1 + libmatroska v1.4.2

Видео
Идентификатор : 1
Формат : AVC
Формат/Информация : Advanced Video Codec
Профиль формата : High@L4.1
Параметр CABAC формата : Да
Параметр RefFrames формата : 4 кадра
Идентификатор кодека : V_MPEG4/ISO/AVC
Продолжительность : 1 ч. 20 м.
Вид битрейта : Переменный
Битрейт : 4416 Кбит/сек
Максимальный битрейт : 5000 Кбит/сек
Ширина : 1280 пикселей
Высота : 672 пикселя
Соотношение сторон : 1,905
Режим частоты кадров : Постоянный
Частота кадров : 23,976 (24000/1001) кадра/сек
Стандарт вещания : Component
Цветовое пространство : YUV
Субдискретизация насыщенности : 4:2:0
Битовая глубина : 8 бит
Тип развёртки : Прогрессивная
Бит/(Пиксели*Кадры) : 0.210
Размер потока : 2,43 Гбайт (90%)
Default : Да
Forced : Нет
Цветовой диапазон : Limited
Основные цвета : BT.709
Характеристики трансфера : BT.709
Коэффициенты матрицы : BT.709

Аудио
Идентификатор : 2
Формат : AC-3
Формат/Информация : Audio Coding 3
Расширение режима : CM (complete main)
Параметр Endianness формата : Big
Идентификатор кодека : A_AC3
Продолжительность : 1 ч. 20 м.
Вид битрейта : Постоянный
Битрейт : 384 Кбит/сек
Каналы : 2 канала
Расположение каналов : Front: L R
Частота : 48,0 КГц
Частота кадров : 31,250 кадров/сек (1536 spf)
Метод сжатия : С потерями
Размер потока : 221 Мбайт (8%)
Default : Да
Forced : Нет

pb.wtf



Скачать Счастливой годовщины через торрент http://img12.lostpic.net/2018/04/02/188133aac0d844999f9e3ebd4a0f6a1f.jpg Скачать фильм Счастливой годовщины через торрент бесплантно в хорошем качестве Описание: Что случается с отношениями, когда проходит первое впечатление от партнёра и заканчивается конфетно-букетный период? Начинается ... 10 10 4
Торрент: Зарегистрирован [2018-04-02 12:03] · скачан: 46 раз
Статус: T временная
Размер: 2.7 GB
Как cкачать? Как скачать Счастливой годовщины через торрент | qTorrent

% Раздел Тема Автор DL S | L
T Фильмы (мультфильмы) cо спонсором показа (Новинки AVI/MKV) [ 1.37 GB ] Счастливой годовщины / Happy Anniversary [2018 WEB-DLRip] MVO ["Синема УС"] bober100 Скачать
1 | 0
Фильмы с авторской озвучкой [ 731 MB ] Счастливая годовщина и разлука / С годовщиной свадьбы и до свидания! / Happy Anniversary and Goodbye [1974 DVDRip] [AVO] killermax2013 Скачать
1 | 0

28-11-2019 20:33  

Отключить всю рекламу на сайте

    Дорогой пользователь! Огромная просьба, поблагодарите релизера, оцените раздачу и оставьте свои комментарий, если Вы скачали Счастливой годовщины через торрент бесплатно! Внесите свою лепту в развитие PiratBit!
    Комментировать посты могут только пользователи прошедшие не сложную регистрацию
    Показать сообщения:    

    Счастливой годовщины через торрент
    Скачать бесплатно Счастливой годовщины
    Счастливой годовщины скачать торрент
    Счастливой годовщины смотреть онлайн
    Cкачать фильм Счастливой годовщины бесплатно
    Счастливой годовщины скачать торрент в хорошем качестве
    Счастливой годовщины смотреть онлайн бесплатно в хорошем качестве


    Вы не можете начинать темы
    Вы не можете отвечать на сообщения
    Вы не можете редактировать свои сообщения
    Вы не можете удалять свои сообщения
    Вы не можете голосовать в опросах
    Вы не можете прикреплять файлы к сообщениям
    Вы можете скачивать файлы