2 сезон

iTunes

1 сезон

1

iTunes

iTunes

iTunes

1 сезон

RePack

30

ИГРА 18+

pack

ВАЖНО

!!Акция!!

Alien_RageХит недели

RePack

MK11
pack

Забери бонус

RePack

jed

!!Акция!!

Alien_Rage

RePack

fifa19

RePack

Assassins Creed: Odyssey

RePack

NEED FOR SPEED™ PAYBACK

4 сезон

9 сезон

Бесстыжие 9 сезон

Все сериалы

все сериалы на PB.wtf

RePack

FAR CRY 5
  

Оптимисты / Сезон: 1 / Серии: 1-13 из 13 (Алексей Попогребский) [2017, Драма, SATRip] pb.wtf

Оптимисты через торрент pb.wtf

Размер: 7.89 GB | Добавлен: 2 года 6 мес. назад | Торрент скачан:82 раза
Скачать  

02-04-2018 12:57 Оптимисты Скачать торрент  

ОптимистыГод выпуска: 2017
Страна: Россия
Жанр: Драма
Продолжительность: ~ 00:45:00
Субтитры: отсутствуют

Режиссер: Алексей Попогребский

rating

В ролях:

Владимир Вдовиченков, Северия Янушаускайте, Артём Быстров, Егор Корешков, Риналь Мухаметов, Анатолий Белый, Юрий Кузнецов, Евгения Брик, Виктория Исакова, Андрей Смирнов, Ольга Голуцкая, Маргарита Адаева, Марта Тимофеева, Пётр Рыков, Людмила Чиркова, Максим Виторган, Артем Волобуев, Юрий Уткин, Валерий Новиков, Валентин Самохин, Пьер Бурель, Настя Александрова, Андрей Стоянов, Роман Синицын, Клим Бердинский, Владимир Чуприков

Описание:

О советских дипломатах 1960-х годов. Они преданы своему делу и Родине. Они молоды, красивы, полны надежд и веры в будущее своей страны. И, конечно, в свое личное счастье.

Качество: SATRip
Формат: AVI

Видео: XviD, 1550 Кбит/с, 720x400
Аудио: MP3, 2 ch, 128 Кбит/с
скриншот   скриншот   скриншот  

Общее
Полное имя : D:\Optimistu.2017.XviD.SATRip\Optimistu.s01.2017.XviD.SATRip.avi
Формат : AVI
Формат/Информация : Audio Video Interleave
Размер файла : 819 Мбайт
Продолжительность : 1 ч. 12 м.
Общий поток : 1589 Кбит/сек
Программа кодирования : VirtualDubModRus 1.5.10.2 (build 2542/release)
Библиотека кодирования : VirtualDubMod build 2542/release
Примечание : www.freemake.com

Видео
Идентификатор : 0
Формат : xvid
Идентификатор кодека : xvid
Продолжительность : 1 ч. 12 м.
Битрейт : 1490 Кбит/сек
Ширина : 720 пикселей
Высота : 400 пикселей
Соотношение сторон : 16:9
Частота кадров : 25,000 кадров/сек
Бит/(Пиксели*Кадры) : 0.193
Размер потока : 716 Мбайт (87%)

Аудио
Идентификатор : 1
Формат : MPEG Audio
Версия формата : Version 1
Профиль формата : Layer 3
Режим : Joint stereo
Расширение режима : MS Stereo
Идентификатор кодека : 55
Идентификатор кодека/Подсказка : MP3
Продолжительность : 1 ч. 12 м.
Вид битрейта : Постоянный
Битрейт : 128 Кбит/сек
Каналы : 2 канала
Частота : 48,0 КГц
Метод сжатия : С потерями
Размер потока : 66,0 Мбайт (8%)
Выравнивание : Разделение по промежуткам

pb.wtf



Скачать Оптимисты через торрент http://i91.fastpic.ru/big/2017/0424/33/91040b63f8ef6349f6eb8d8f47a6af33.png Скачать фильм Оптимисты через торрент бесплантно в хорошем качестве Описание: О советских дипломатах 1960-х годов. Они преданы своему делу и Родине. Они молоды, красивы, полны надежд и веры в будущее своей ... 9.8 10 6
Торрент: Зарегистрирован [2018-04-02 12:57] · скачан: 82 раз
Статус: √ проверено
Размер: 7.89 GB
Как cкачать? Как скачать Оптимисты через торрент | qTorrent

% Раздел Тема Автор DL S | L
Наши сериалы [ 39.2 GB ] Оптимисты / Сезон: 1 / Серии: 1-13 из 13 [2017 HDTV 1080i] bober100 Скачать
1 | 0
Наши сериалы [ 17.06 GB ] Оптимисты / Сезон: 1 / Серии: 1-13 из 13 [2017 HDTVRip 720p] bober100 Скачать
1 | 0
Наши сериалы [ 8.12 GB ] Оптимисты / Сезон: 1 / Серии: 1-13 из 13 [2017 HDTVRip] bober100 Скачать
1 | 0

28-11-2019 20:33  

Отключить всю рекламу на сайте

    Дорогой пользователь! Огромная просьба, поблагодарите релизера, оцените раздачу и оставьте свои комментарий, если Вы скачали Оптимисты через торрент бесплатно! Внесите свою лепту в развитие PiratBit!
    Комментировать посты могут только пользователи прошедшие не сложную регистрацию
    Показать сообщения:    

    Оптимисты через торрент
    Скачать бесплатно Оптимисты
    Оптимисты скачать торрент
    Оптимисты смотреть онлайн
    Cкачать фильм Оптимисты бесплатно
    Оптимисты скачать торрент в хорошем качестве
    Оптимисты смотреть онлайн бесплатно в хорошем качестве


    Вы не можете начинать темы
    Вы не можете отвечать на сообщения
    Вы не можете редактировать свои сообщения
    Вы не можете удалять свои сообщения
    Вы не можете голосовать в опросах
    Вы не можете прикреплять файлы к сообщениям
    Вы можете скачивать файлы