Ссылка на приватное зеркало нашего сайта всего за 1$. Внимание количество ограничено!!!

2 сезон

iTunes

1 сезон

1

2 сезон

2 сезон

iTunes

1 сезон

RePack

30

Новинка

ВАЖНО

ИГРА 18+

pack

RePack

MK11
pack

Забери бонус

RePack

jed

!!Акция!!

Alien_Rage

RePack

fifa19

RePack

Assassins Creed: Odyssey

RePack

NEED FOR SPEED™ PAYBACK

4 сезон

9 сезон

Бесстыжие 9 сезон

Все сериалы

все сериалы на PB.wtf

RePack

FAR CRY 5
  

Изгой-один: Звёздные войны. Истории / Rogue One: A Star Wars Story (Гарет Эдвардс) [2016, Фантастика, боевик, приключения, BD Remux 1080p] [Лицензия] 2xDUB+VO+3xAVO pb.wtf

Изгой-один: Звёздные войны. Истории через торрент pb.wtf

Размер: 56.6 GB | Добавлен: 2 года 7 мес. назад | Торрент скачан:51 раз
Скачать  

02-04-2018 14:17 Изгой-один: Звёздные войны. Истории Скачать торрент  

Изгой-один: Звёздные войны. Истории / Rogue One: A Star Wars Story
Год выпуска: 2016
Страна: США
Жанр: Фантастика, боевик, приключения
Продолжительность: 02:13:57
Перевод:

#1. Дубляж | Лицензия
#2. авторский | Гаврилов, Живов, Сербин
#3. любительский одноголосый | Солод
#4. Дубляж | Sergesha

Субтитры: Русские (forced, full), английские (forced, full, SDH, SDH (COLORED))

Режиссер: Гарет Эдвардс

rating

В ролях:

Фелисити Джонс, Диего Луна, Алан Тьюдик, Донни Йен, Вэнь Цзян, Бен Мендельсон, Форест Уитакер, Риз Ахмед, Мадс Миккельсен, Джимми Смитс

Описание:

Сопротивление собирает отряд для выполнения особой миссии — надо выкрасть чертежи самого совершенного и смертоносного оружия Империи. Возглавляет бойцов неуправляемая и бесстрашная Джин Эрсо, у которой в этом самоубийственном задании есть и личные мотивы. Не всем суждено вернуться домой, но герои готовы к этому, ведь на кону судьба Галактики.

Качество: BD Remux 1080p
Формат: MKV

Видео: 33979 Кбит/с, 1920x1080, 23.976 кадр/с
Аудио#1: Русский DTS-HD MA 7.1 5583 kbps - Дубляж (Sergesha)
Аудио#2: Русский AC3 5.1 640 kbps - Дубляж
Аудио#3: Русский DTS-HD MA 7.1 5125 kbps - Авторский (Гаврилов)
Аудио#4: Русский DTS-HD MA 7.1 5136 kbps - Авторский (Живовч)
Аудио#5: Русский DTS-HD MA 7.1 5128 kbps - Авторский (Сербин)
Аудио#6: Русский AC3 5.1 448 kbps - Любительский одноголосый (Солод)
Аудио#7: Английский DTS-HD MA 7.1 5135 kbps - Оригинал
скриншот   скриншот   скриншот   скриншот   скриншот   скриншот  

Общее
Уникальный идентификатор : 245913164450667474472599719657922113693 (0xB90127183AA48D07BA3DEAB216E4309D)
Полное имя : D:\РЕМУКС!!!!!\Изгой-один Звёздные войны. Истории.BDRemux.mkv
Формат : Matroska
Версия формата : Version 4 / Version 2
Размер файла : 56,6 Гбайт
Продолжительность : 2 ч. 13 м.
Режим общего битрейта : Переменный
Общий поток : 60,5 Мбит/сек
Название фильма : Изгой-один Звёздные войны. Истории.BDRemux.thx:SPOMOPS
Дата кодирования : UTC 2018-04-02 11:44:06
Программа кодирования : mkvmerge v8.3.0 ('Over the Horizon') 64bit
Библиотека кодирования : libebml v1.3.1 + libmatroska v1.4.2
Attachments : poster.jpg

Видео
Идентификатор : 1
Формат : AVC
Формат/Информация : Advanced Video Codec
Профиль формата : High@L4.1
Настройки формата : CABAC / 4 Ref Frames
Параметр CABAC формата : Да
Параметр RefFrames формата : 4 кадра
Идентификатор кодека : V_MPEG4/ISO/AVC
Продолжительность : 2 ч. 13 м.
Вид битрейта : Переменный
Битрейт : 33,8 Мбит/сек
Максимальный битрейт : 35,5 Мбит/сек
Ширина : 1920 пикселей
Высота : 1080 пикселей
Соотношение сторон : 16:9
Режим частоты кадров : Постоянный
Частота кадров : 23,976 (24000/1001) кадра/сек
Цветовое пространство : YUV
Субдискретизация насыщенности : 4:2:0
Битовая глубина : 8 бит
Тип развёртки : Прогрессивная
Бит/(Пиксели*Кадры) : 0.680
Размер потока : 31,6 Гбайт (56%)
Default : Да
Forced : Нет

Аудио #1
Идентификатор : 2
Формат : DTS
Формат/Информация : Digital Theater Systems
Профиль формата : MA / Core
Идентификатор кодека : A_DTS
Продолжительность : 2 ч. 13 м.
Вид битрейта : Переменный / Постоянный
Битрейт : 5058 Кбит/сек / 1509 Кбит/сек
Каналы : 8 каналов / 6 каналов
Расположение каналов : Front: L C R, Side: L R, Back: L R, LFE / Front: L C R, Side: L R, LFE
Частота : 48,0 КГц
Частота кадров : 93,750 кадра/сек (512 SPF)
Битовая глубина : 24 бит
Метод сжатия : Без потерь / Lossy
Размер потока : 4,73 Гбайт (8%)
Заголовок : Русский DTS-HD MA - Дубляж
Язык : Russian
Default : Да
Forced : Нет

Аудио #2
Идентификатор : 3
Формат : AC-3
Формат/Информация : Audio Coding 3
Идентификатор кодека : A_AC3
Продолжительность : 2 ч. 13 м.
Вид битрейта : Постоянный
Битрейт : 640 Кбит/сек
Каналы : 6 каналов
Расположение каналов : Front: L C R, Side: L R, LFE
Частота : 48,0 КГц
Частота кадров : 31,250 кадров/сек (1536 SPF)
Битовая глубина : 16 бит
Метод сжатия : С потерями
Размер потока : 613 Мбайт (1%)
Заголовок : Русский АСЗ - Дубляж
Язык : Russian
ServiceKind/String : Complete Main
Default : Нет
Forced : Нет

Аудио #3
Идентификатор : 4
Формат : DTS
Формат/Информация : Digital Theater Systems
Профиль формата : MA / Core
Идентификатор кодека : A_DTS
Продолжительность : 2 ч. 13 м.
Вид битрейта : Переменный / Постоянный
Битрейт : 5125 Кбит/сек / 1509 Кбит/сек
Каналы : 8 каналов / 6 каналов
Расположение каналов : Front: L C R, Side: L R, Back: L R, LFE / Front: L C R, Side: L R, LFE
Частота : 48,0 КГц
Частота кадров : 93,750 кадра/сек (512 SPF)
Битовая глубина : 24 бит
Метод сжатия : Без потерь / Lossy
Размер потока : 4,80 Гбайт (8%)
Заголовок : Русский DTS-HD MA - АП (Гаврилов)
Язык : Russian
Default : Нет
Forced : Нет

Аудио #4
Идентификатор : 5
Формат : DTS
Формат/Информация : Digital Theater Systems
Профиль формата : MA / Core
Идентификатор кодека : A_DTS
Продолжительность : 2 ч. 13 м.
Вид битрейта : Переменный / Постоянный
Битрейт : 5136 Кбит/сек / 1509 Кбит/сек
Каналы : 8 каналов / 6 каналов
Расположение каналов : Front: L C R, Side: L R, Back: L R, LFE / Front: L C R, Side: L R, LFE
Частота : 48,0 КГц
Частота кадров : 93,750 кадра/сек (512 SPF)
Битовая глубина : 24 бит
Метод сжатия : Без потерь / Lossy
Размер потока : 4,81 Гбайт (8%)
Заголовок : Русский DTS-HD MA - АП (Живов)
Язык : Russian
Default : Нет
Forced : Нет

Аудио #5
Идентификатор : 6
Формат : DTS
Формат/Информация : Digital Theater Systems
Профиль формата : MA / Core
Идентификатор кодека : A_DTS
Продолжительность : 2 ч. 13 м.
Вид битрейта : Переменный / Постоянный
Битрейт : 5128 Кбит/сек / 1509 Кбит/сек
Каналы : 8 каналов / 6 каналов
Расположение каналов : Front: L C R, Side: L R, Back: L R, LFE / Front: L C R, Side: L R, LFE
Частота : 48,0 КГц
Частота кадров : 93,750 кадра/сек (512 SPF)
Битовая глубина : 24 бит
Метод сжатия : Без потерь / Lossy
Размер потока : 4,80 Гбайт (8%)
Заголовок : Русский DTS-HD MA - АП (Сербин)
Язык : Russian
Default : Нет
Forced : Нет

Аудио #6
Идентификатор : 7
Формат : AC-3
Формат/Информация : Audio Coding 3
Идентификатор кодека : A_AC3
Продолжительность : 2 ч. 13 м.
Вид битрейта : Постоянный
Битрейт : 448 Кбит/сек
Каналы : 6 каналов
Расположение каналов : Front: L C R, Side: L R, LFE
Частота : 48,0 КГц
Частота кадров : 31,250 кадров/сек (1536 SPF)
Битовая глубина : 16 бит
Метод сжатия : С потерями
Размер потока : 429 Мбайт (1%)
Заголовок : Русский АСЗ - ЛО (Solod)
Язык : Russian
ServiceKind/String : Complete Main
Default : Нет
Forced : Нет

Аудио #7
Идентификатор : 8
Формат : DTS
Формат/Информация : Digital Theater Systems
Профиль формата : MA / Core
Идентификатор кодека : A_DTS
Продолжительность : 2 ч. 13 м.
Вид битрейта : Переменный / Постоянный
Битрейт : 5135 Кбит/сек / 1509 Кбит/сек
Каналы : 8 каналов / 6 каналов
Расположение каналов : Front: L C R, Side: L R, Back: L R, LFE / Front: L C R, Side: L R, LFE
Частота : 48,0 КГц
Частота кадров : 93,750 кадра/сек (512 SPF)
Битовая глубина : 24 бит
Метод сжатия : Без потерь / Lossy
Размер потока : 4,80 Гбайт (8%)
Заголовок : Английский DTS-HD MA - Оригинал
Язык : English
Default : Нет
Forced : Нет

Текст #1
Идентификатор : 9
Формат : UTF-8
Идентификатор кодека : S_TEXT/UTF8
Идентификатор кодека/Информация : UTF-8 Plain Text
Продолжительность : 25 м. 37 с.
Битрейт : 1 бит/сек
ElementCount : 9
Размер потока : 318 байт (0%)
Заголовок : Русские форс.
Язык : Russian
Default : Да
Forced : Нет

Текст #2
Идентификатор : 10
Формат : UTF-8
Идентификатор кодека : S_TEXT/UTF8
Идентификатор кодека/Информация : UTF-8 Plain Text
Продолжительность : 2 ч. 5 м.
Битрейт : 78 бит/сек
ElementCount : 1516
Размер потока : 72,1 Кбайт (0%)
Заголовок : Русские
Язык : Russian
Default : Нет
Forced : Нет

Текст #3
Идентификатор : 11
Формат : UTF-8
Идентификатор кодека : S_TEXT/UTF8
Идентификатор кодека/Информация : UTF-8 Plain Text
Продолжительность : 25 м. 37 с.
Битрейт : 1 бит/сек
ElementCount : 9
Размер потока : 227 байт (0%)
Заголовок : Английские форс.
Язык : English
Default : Нет
Forced : Нет

Текст #4
Идентификатор : 12
Формат : UTF-8
Идентификатор кодека : S_TEXT/UTF8
Идентификатор кодека/Информация : UTF-8 Plain Text
Продолжительность : 2 ч. 4 м.
Битрейт : 48 бит/сек
ElementCount : 1572
Размер потока : 44,2 Кбайт (0%)
Заголовок : Английские
Язык : English
Default : Нет
Forced : Нет

Текст #5
Идентификатор : 13
Формат : UTF-8
Идентификатор кодека : S_TEXT/UTF8
Идентификатор кодека/Информация : UTF-8 Plain Text
Продолжительность : 2 ч. 5 м.
Битрейт : 54 бит/сек
ElementCount : 1830
Размер потока : 50,2 Кбайт (0%)
Заголовок : Английские SDH
Язык : English
Default : Нет
Forced : Нет

Текст #6
Идентификатор : 14
Формат : UTF-8
Идентификатор кодека : S_TEXT/UTF8
Идентификатор кодека/Информация : UTF-8 Plain Text
Продолжительность : 2 ч. 5 м.
Битрейт : 68 бит/сек
ElementCount : 1830
Размер потока : 62,5 Кбайт (0%)
Заголовок : Английские SDH-Colored
Язык : English
Default : Нет
Forced : Нет

Меню
00:00:00.000 : en:"He's Come For Us"
00:02:34.654 : en:Unfinished Business
00:07:46.466 : en:Jyn In Prison
00:08:42.814 : en:Ring Of Kafren
00:11:04.622 : en:An Urgent Message
00:12:21.199 : en:Wobani Prison Break
00:13:41.154 : en:Rebel Interrogation
00:17:19.914 : en:Mission Departure
00:20:09.542 : en:Saw Gerrera
00:21:54.772 : en:Krennic And Tarkin
00:23:47.092 : en:Jyn's Dream
00:24:31.386 : en:Scouting Jedha City
00:26:53.445 : en:Bor Gullet
00:27:46.623 : en:Guardians Of The Whills
00:30:37.294 : en:Holy City Ambush
00:33:53.406 : en:"Let Them Pass"
00:37:11.271 : en:Saw's Catacombs
00:42:30.089 : en:Galen's Message
00:47:16.125 : en:Jedha Escape
00:51:04.144 : en:Tarkin Commands
00:52:23.724 : en:Race To Eadu
00:55:53.266 : en:Eadu Crash
00:59:48.251 : en:Scouting Eadu
01:02:07.807 : en:Krennic And Galen
01:05:25.505 : en:Attack On Eadu
01:10:24.095 : en:Eadu Aftermath
01:12:49.532 : en:Mustafar
01:16:28.459 : en:Jyn Before The Council
01:19:04.323 : en:"May The Force Be With Us"
01:21:55.160 : en:Rogue One Launches
01:23:25.667 : en:Scarif Gate
01:25:58.987 : en:10 Men Like 100
01:27:34.958 : en:Imperial Inspection
01:29:57.308 : en:Ground Forces
01:31:53.841 : en:The Battle Begins
01:34:18.736 : en:Scrambling The Rebel Fleet
01:36:07.512 : en:Sowing Confusion
01:37:48.237 : en:Rebel Reinforcements
01:40:27.605 : en:Beach Battle
01:42:44.074 : en:Master Switch
01:45:26.779 : en:Stardust
01:47:55.010 : en:Data Vault
01:50:31.416 : en:Sacrifices
01:53:28.885 : en:"We Have The Plans"
01:55:46.272 : en:Final Confrontation
01:59:23.448 : en:Transmission Received
02:01:11.347 : en:Fire When Ready
02:03:15.596 : en:Hope
02:05:42.118 : en:End Credits

pb.wtf



Скачать Изгой-один: Звёздные войны. Истории через торрент http://i100.fastpic.ru/big/2018/0323/e2/27a8ed73119d4ecb59466464534a6de2.png Скачать фильм Изгой-один: Звёздные войны. Истории через торрент бесплантно в хорошем качестве Описание: Сопротивление собирает отряд для выполнения особой миссии — надо выкрасть чертежи самого совершенного и смертоносного оружия ... 7 10 6
Info! Золотая раздача, скачанное не засчитывается.
Торрент: Зарегистрирован [2018-04-02 14:17] · скачан: 51 раз
Статус: √ проверено
Размер: 56.6 GB
Как cкачать? Как скачать Изгой-один: Звёздные войны. Истории через торрент | qTorrent

28-11-2019 20:33  

Отключить всю рекламу на сайте

    Дорогой пользователь! Огромная просьба, поблагодарите релизера, оцените раздачу и оставьте свои комментарий, если Вы скачали Изгой-один: Звёздные войны. Истории через торрент бесплатно! Внесите свою лепту в развитие PiratBit!
    Комментировать посты могут только пользователи прошедшие не сложную регистрацию
    Показать сообщения:    

    Изгой-один: Звёздные войны. Истории через торрент
    Скачать бесплатно Изгой-один: Звёздные войны. Истории
    Изгой-один: Звёздные войны. Истории скачать торрент
    Изгой-один: Звёздные войны. Истории смотреть онлайн
    Cкачать фильм Изгой-один: Звёздные войны. Истории бесплатно
    Изгой-один: Звёздные войны. Истории скачать торрент в хорошем качестве
    Изгой-один: Звёздные войны. Истории смотреть онлайн бесплатно в хорошем качестве


    Вы не можете начинать темы
    Вы не можете отвечать на сообщения
    Вы не можете редактировать свои сообщения
    Вы не можете удалять свои сообщения
    Вы не можете голосовать в опросах
    Вы не можете прикреплять файлы к сообщениям
    Вы можете скачивать файлы