Anonymous, добрый вечер, присоединяйтесь к нам в Telegram!, здесь всегда актуальный адрес сайта, оперативная поддержка и многое другое!

>

5.6

iTunes

7.4

MVO

5.7

MVO

1

7.7

1 сезон

6.8

iTunes

7.3

1 сезон

13

6.7

1 сезон

8.3

RePack

30

ULTIMATE

pack

9.9

Лицензия

ВАЖНО

ИГРА 18+

pack

7.3

RePack

MK11

7.7

RePack

jed

7.8

RePack

fifa19

8.5

RePack

RDR2

RePack

NEED FOR SPEED™ PAYBACK

4 сезон

9 сезон

Бесстыжие 9 сезон

Все сериалы

все сериалы на PB.wtf

RePack

FAR CRY 5

Anonymous, добрый вечер, мы катастрофически не успеваем собрать деньги на оплату серверов, помогите нам пожалуйста 5,10,15р., для нас важна любая помощь . В качестве благодарности мы отключим Вам всю рекламу на сайте (укажите свой ник в строку Ваше имя)!

×
  
Magnet ссылка

Универ. Новая общага / Сезон: 14 / Серии: 1-18 из 18 (Константин Смирнов) [2018, Ситком, комедия, HDTV 1080i] pb.wtf

Универ. Новая общага через торрент pb.wtf

Размер: 24.21 GB | Добавлен: 3 года 5 мес. назад | Торрент скачан:98 раз
Смотреть онлайн Универ. Новая общага | Скачать    Ребята, помогите собрать деньги на оплату серверов!!!

02-04-2018 18:00 Универ. Новая общага Скачать торрент  

Универ. Новая общага
Год выпуска: 2018
Страна: Россия
Жанр: Ситком, комедия
Продолжительность: ~ 00:25:00
Субтитры: отсутствуют

Режиссер: Константин Смирнов



В ролях:

Арарат Кещян, Александр Стекольников, Станислав Ярушин, Анна Кузина, Анна Хилькевич, Константин Шелягин, Григорий Кокоткин, Елена Валюшкина, Сергей Пиоро, Сергей Мурзин

Описание:

Майкл и Антон ищут в кафе крота, Маша и Валя думают о свадьбе, Артем Ребров больше не звезда «Универ ТВ», а Ника возглавит новый телеканал.

Качество: HDTV 1080i
Формат: MPEG-TS

Видео: 1920х1080 (16:9), 25 fps, AVC MPEG-4 (x264), High@L4.0 ~ 7800 kbps avg, 0.161 bit/pixel
Аудио: 48 kHz, MPEG Layer 2, 2 ch, ~ 192 kbps avg
скриншот   скриншот   скриншот   скриншот  

Общее
Идентификатор : 1 (0x1)
Полное имя : D:\Univer.Novaja.obwaga.14.sezon.2018.HDTV.(1080i).Nikolspup\Univer.Novaja.obwaga.14.sezon.(01.seriya).2018.HDTV.(1080i).Nikolspup.ts
Формат : MPEG-TS
Размер файла : 1,30 Гбайт
Продолжительность : 22 м. 17 с.
Режим общего битрейта : Переменный
Общий поток : 8351 Кбит/сек

Видео
Идентификатор : 256 (0x100)
Идентификатор меню : 1 (0x1)
Формат : AVC
Формат/Информация : Advanced Video Codec
Профиль формата : High@L4.1
Параметр CABAC формата : Да
Параметр RefFrames формата : 3 кадра
Параметр GOP формата : M=3, N=33
Идентификатор кодека : 27
Продолжительность : 22 м. 17 с.
Вид битрейта : Постоянный
Битрейт : 7868 Кбит/сек
Ширина : 1920 пикселей
Высота : 1080 пикселей
Соотношение сторон : 16:9
Частота кадров : 25,000 кадров/сек
Стандарт вещания : PAL
Цветовое пространство : YUV
Субдискретизация насыщенности : 4:2:0
Битовая глубина : 8 бит
Тип развёртки : Прогрессивная
Бит/(Пиксели*Кадры) : 0.152
Размер потока : 1,21 Гбайт (93%)
Цветовой диапазон : Limited
Основные цвета : BT.709
Характеристики трансфера : BT.709
Коэффициенты матрицы : BT.709

Аудио
Идентификатор : 257 (0x101)
Идентификатор меню : 1 (0x1)
Формат : MPEG Audio
Версия формата : Version 1
Профиль формата : Layer 2
Идентификатор кодека : 3
Продолжительность : 22 м. 17 с.
Вид битрейта : Постоянный
Битрейт : 192 Кбит/сек
Каналы : 2 канала
Частота : 48,0 КГц
Метод сжатия : С потерями
Размер потока : 30,6 Мбайт (2%)
Язык : English

нимание! Раздача ведётся путём добавления новых серий; при каждом добавлении создаётся новый торрент. Чтобы начать докачку новой серии, пользователям необходимо сделать следующее:
(1) остановить скачивание,
(2) удалить старый торрент у себя из клиента (старые серии удалять не надо),
(3) скачать новый торрент и запустить его у себя в клиенте вместо старого, при этом указать клиенту путь в старую папку куда и должно происходить скачивание новых серий.
Ваш клиент при этом должен произвести хеширование (проверку) старой папки (если не производит сам - помогите ему сделать это), и будет докачивать только те серии которых у вас ещё нет. Старые серии при этом не удаляются, а продолжают раздаваться!
Eсли вы уже удалили старые серии, то предотвратить повторную закачку старых серий можно, отжав галочку в соответствующих местах при запуске нового торрента. По возможности, желательно не удалять старые серии как можно дольше чтобы релизёр не столько продолжал раздавать старые серии, а смог сконцентрироваться на новых.
pb.wtf



Скачать Универ. Новая общага через торрент http://i103.fastpic.ru/big/2018/0402/2b/d07955496a2db651f8545252b8b63f2b.jpg Скачать, смотреть онлайн Универ. Новая общага бесплантно в хорошем качестве Описание: Майкл и Антон ищут в кафе крота, Маша и Валя думают о свадьбе, Артем Ребров больше не звезда «Универ ТВ», а Ника возглавит новый ... 8.6 10 13
Info! Золотая раздача, скачанное не засчитывается.
Торрент: Зарегистрирован [2018-04-19 20:08] · скачан: 98 раз
Статус: √ проверено
Размер: 24.21 GB
Как cкачать? Как скачать Универ. Новая общага через торрент | UTorrent

% Раздел Тема Автор DL S | L
TNT serials [ 12.38 GB ] Универ. Новая общага / Сезон: 14 / Серии: 1-18 из 18 [2018 Ситком HDTVRip 720p] bober100 Скачать
1 | 0
TNT serials [ 6.48 GB ] Универ. Новая общага / Сезон: 14 / Серии: 1-18 из 18 [2018 Ситком HDTVRip-AVC] bober100 Скачать
1 | 0
TNT serials [ 5.8 GB ] Универ. Новая общага / Сезон: 14 / Серии: 1-18 из 18 [2018 Ситком SATRip] bober100 Скачать
1 | 0
TNT serials [ 11.41 GB ] Универ. Новая общага / Сезон: 14 / Серии: 1-18 из 18 [2018 Ситком WEB-DL 720p] bober100 Скачать
1 | 0
TNT serials [ 5.58 GB ] Универ. Новая общага / Сезон: 14 / Серии: 1-18 из 18 [2018 Ситком WEB-DLRip] bober100 Скачать
1 | 0
TNT serials [ 4.13 GB ] Универ. Новая общага / Сезон: 14 / Серии: 1-18 из 18 + Спец. выпуск [2018 Ситком HDTVRip] bober100 Скачать
1 | 0

28-11-2019 20:33  

Отключить всю рекламу на сайте

24-04-2018 15:30 Универ. Новая общага Скачать торрент  

14-ый сезон, просто рука-лицо...pb.wtf



    Дорогой пользователь! Огромная просьба, поблагодарите релизера, оцените раздачу и оставьте свои комментарий, если Вы скачали Универ. Новая общага через торрент бесплатно!
    Комментировать посты могут только пользователи прошедшие не сложную регистрацию
    Показать сообщения:    

    Универ. Новая общага через торрент
    Скачать бесплатно Универ. Новая общага
    Универ. Новая общага скачать торрент
    Универ. Новая общага смотреть онлайн
    Cкачать фильм Универ. Новая общага бесплатно
    Универ. Новая общага скачать торрент в хорошем качестве
    Универ. Новая общага смотреть онлайн бесплатно в хорошем качестве


    Вы не можете начинать темы
    Вы не можете отвечать на сообщения
    Вы не можете редактировать свои сообщения
    Вы не можете удалять свои сообщения
    Вы не можете голосовать в опросах
    Вы не можете прикреплять файлы к сообщениям
    Вы можете скачивать файлы