Ссылка на приватное зеркало всего за 1$. Внимание количество ограничено!!!

OK

1+1

iTunes

мы

OK

1

WEB-DLRip

Джокер

Пифагор

Ведьмак / The Witcher сериал

iTunes

ПШазам

ОК

Оно 2

iTunes

30
pack

Вам бонус

ВАЖНО

!!Акция!!

Alien_RageХит недели

RePack

Resident Evil 21

ИГРА 18+

pack

RePack

jed

RePack

fifa19

RePack

Assassins Creed: Odyssey

RePack

NEED FOR SPEED™ PAYBACK

4 сезон

9 сезон

Бесстыжие 9 сезон

Все сериалы

все сериалы на PB.wtf

RePack

FAR CRY 5
  

Выкуси / Suck It Up (Джордан Каннинг) [2017, драма, комедия, WEB-DL 1080p] MVO [Jaskier] pb.wtf

Выкуси через торрент pb.wtf

Размер: 3.83 GB | Добавлен: 1 год 9 мес. назад | Торрент скачан:12 раз
Скачать  

02-04-2018 19:20 Выкуси Скачать торрент  

Выкуси / Suck It UpГод выпуска: 2017
Страна: Канада
Жанр: драма, комедия
Продолжительность: 01:34:06
Перевод: Профессиональный (многоголосый) | Jaskier
Субтитры: отсутствуют

Режиссер: Джордан Каннинг

rating

В ролях:

Эрин Маргурит Картер, Грейс Гоулицки, Дэн Бирн, Тоби Маркс, Нэнси Керр, Блейк Гордей, Пол Коулинг, Майкл Роу, Ивэн Мэй, Адора Нвофор

Описание:

Две подруги отправляются в путешествие, чтобы смириться с потерей близких людей

Качество: WEB-DL 1080p
Формат: MKV

Видео: MPEG-4 AVC, 4500 Кбит/с, 1920x800
Аудио#1: Русский (AC3, 6 ch, 384 Кбит/с)
Аудио#2: английский (AC3, 6 ch, 384 Кбит/с)
скриншот  скриншот  скриншот  

Общее
Уникальный идентификатор : 245105623343000226732089992336397353607 (0xB865A03E7B5E9B3FA16DEA055EA8C287)
Полное имя : D:\Suck.It.Up.2017.1080p.-JASKiER.mkv
Формат : Matroska
Версия формата : Version 2
Размер файла : 3,83 Гбайт
Продолжительность : 1 ч. 43 м.
Общий поток : 5307 Кбит/сек
Дата кодирования : UTC 2018-04-02 16:47:51
Программа кодирования : mkvmerge v5.8.0 ('No Sleep / Pillow') built on Sep 2 2012 15:37:04
Библиотека кодирования : libebml v1.2.3 + libmatroska v1.3.0

Видео
Идентификатор : 1
Формат : AVC
Формат/Информация : Advanced Video Codec
Профиль формата : High@L4
Параметр CABAC формата : Да
Параметр RefFrames формата : 5 кадров
Идентификатор кодека : V_MPEG4/ISO/AVC
Продолжительность : 1 ч. 43 м.
Битрейт : 4500 Кбит/сек
Ширина : 1920 пикселей
Высота : 800 пикселей
Соотношение сторон : 2,40:1
Режим частоты кадров : Постоянный
Частота кадров : 23,976 (24000/1001) кадра/сек
Цветовое пространство : YUV
Субдискретизация насыщенности : 4:2:0
Битовая глубина : 8 бит
Тип развёртки : Прогрессивная
Бит/(Пиксели*Кадры) : 0.120
Размер потока : 3,20 Гбайт (84%)
Язык : English
Default : Да
Forced : Нет
Цветовой диапазон : Limited
Основные цвета : BT.709
Характеристики трансфера : BT.709
Коэффициенты матрицы : BT.709

Аудио #1
Идентификатор : 2
Формат : AC-3
Формат/Информация : Audio Coding 3
Расширение режима : CM (complete main)
Параметр Endianness формата : Big
Идентификатор кодека : A_AC3
Продолжительность : 1 ч. 43 м.
Вид битрейта : Постоянный
Битрейт : 384 Кбит/сек
Каналы : 6 каналов
Расположение каналов : Front: L C R, Side: L R, LFE
Частота : 48,0 КГц
Частота кадров : 31,250 кадров/сек (1536 spf)
Метод сжатия : С потерями
Задержка видео : -42 мс.
Размер потока : 284 Мбайт (7%)
Default : Нет
Forced : Нет

Аудио #2
Идентификатор : 3
Формат : AC-3
Формат/Информация : Audio Coding 3
Расширение режима : CM (complete main)
Параметр Endianness формата : Big
Идентификатор кодека : A_AC3
Продолжительность : 1 ч. 43 м.
Вид битрейта : Постоянный
Битрейт : 384 Кбит/сек
Каналы : 6 каналов
Расположение каналов : Front: L C R, Side: L R, LFE
Частота : 48,0 КГц
Частота кадров : 31,250 кадров/сек (1536 spf)
Метод сжатия : С потерями
Задержка видео : -42 мс.
Размер потока : 284 Мбайт (7%)
Язык : English
Default : Нет
Forced : Нет

Меню
00:00:00.000 : en:Chapter 01
00:09:15.000 : en:Chapter 02
00:17:36.000 : en:Chapter 03
00:28:33.000 : en:Chapter 04
00:36:52.000 : en:Chapter 05
00:46:37.000 : en:Chapter 06
00:57:05.000 : en:Chapter 07
01:05:31.000 : en:Chapter 08
01:14:52.000 : en:Chapter 09
01:25:08.000 : en:Chapter 10
01:38:57.000 : en:Chapter 11

pb.wtf
!bober100 писал(а):

Реклама: Присутствует голосовая.



Скачать Выкуси через торрент http://img12.lostpic.net/2018/04/02/fbc8ac1bee5621c11c4b57a5b3cf5f37.jpg Скачать фильм Выкуси через торрент бесплантно в хорошем качестве Описание: Две подруги отправляются в путешествие, чтобы смириться с потерей близких ... 9.7 10 3
Торрент: Зарегистрирован [2018-04-02 19:20] · скачан: 12 раз
Статус: T временная
Размер: 3.83 GB
Как cкачать? Как скачать Выкуси через торрент | qTorrent

% Раздел Тема Автор DL S | L
T Фильмы (мультфильмы) cо спонсором показа (Новинки AVI/MKV) [ 1.29 GB ] Выкуси / Suck It Up [2017 WEB-DLRip] MVO [Jaskier] bober100 Скачать
1 | 0

28-11-2019 20:33  

Отключить всю рекламу на сайте

    Дорогой пользователь! Огромная просьба, поблагодарите релизера, оцените раздачу и оставьте свои комментарий, если Вы скачали Выкуси через торрент бесплатно! Внесите свою лепту в развитие PiratBit!
    Комментировать посты могут только пользователи прошедшие не сложную регистрацию
    Показать сообщения:    

    Выкуси через торрент
    Скачать бесплатно Выкуси
    Выкуси скачать торрент
    Выкуси смотреть онлайн
    Cкачать фильм Выкуси бесплатно
    Выкуси скачать торрент в хорошем качестве
    Выкуси смотреть онлайн бесплатно в хорошем качестве


    Вы не можете начинать темы
    Вы не можете отвечать на сообщения
    Вы не можете редактировать свои сообщения
    Вы не можете удалять свои сообщения
    Вы не можете голосовать в опросах
    Вы не можете прикреплять файлы к сообщениям
    Вы можете скачивать файлы