Доктор Стрэндж

Лицензия

Добыча

MVO

Дом дракона

1 сезон

Тор

Лицензия

Мэверик

Лицензия

Там, где раки поют

MVO

Властелин колец

1 сезон

Ultimate

pack

Рекомендуем

30

Repack

ВАЖНО

ВАЖНО

Ghostwire

RePack

jed

RePack

nioh2

RePack

RDR2

RePack

NEED FOR SPEED™ PAYBACK

RePack

скачать торрент

Кинопоиск HD

Острые козырьки 6 сезон

6 сезон

FAR CRY 6

RePack

скачать торрент

Лицензия

скачать торрент

MVO

1

1 сезон

скачать торрент

1 сезон

скачать торрент

Лицензия

  

Оптимисты / Сезон: 1 / Серии: 1-13 из 13 (Алексей Попогребский) [2017, Драма, HDTVRip 720p]

Оптимисты через торрент pb.wtf

Размер: 17.06 GB | Добавлен: 4 года 6 мес. назад | Торрент скачан:63 раза
Смотреть онлайн | Скачать   

02-04-2018 20:27 Оптимисты Скачать торрент  

ОптимистыГод выпуска: 2017
Страна: Россия
Жанр: Драма
Продолжительность: ~ 00:45:00
Субтитры: отсутствуют

Режиссер: Алексей Попогребский

rating

В ролях:

Владимир Вдовиченков, Северия Янушаускайте, Артём Быстров, Егор Корешков, Риналь Мухаметов, Анатолий Белый, Юрий Кузнецов, Евгения Брик, Виктория Исакова, Андрей Смирнов, Ольга Голуцкая, Маргарита Адаева, Марта Тимофеева, Пётр Рыков, Людмила Чиркова, Максим Виторган, Артем Волобуев, Юрий Уткин, Валерий Новиков, Валентин Самохин, Пьер Бурель, Настя Александрова, Андрей Стоянов, Роман Синицын, Клим Бердинский, Владимир Чуприков

Описание:

О советских дипломатах 1960-х годов. Они преданы своему делу и Родине. Они молоды, красивы, полны надежд и веры в будущее своей страны. И, конечно, в свое личное счастье.

Качество: HDTVRip 720p
Формат: MKV

Видео: MPEG-4 AVC, ~ 3500 Кбит/с, 1280x720, 25 кадр/с
Аудио: Русский (AC3, 2 ch, 192 Кбит/с)
скриншот   скриншот   скриншот  

Общее
Уникальный идентификатор : 171399105520253567834415470405140489343 (0x80F244588E745F999741DE92DE3E247F)
Полное имя : D:\Optimisty.HDTVRip.(720p).GeneralFilm\Optimisty.01.HDTVRip.(720p).GeneralFilm.mkv
Формат : Matroska
Версия формата : Version 2
Размер файла : 1,87 Гбайт
Продолжительность : 1 ч. 12 м.
Общий поток : 3693 Кбит/сек
Дата кодирования : UTC 2017-04-24 23:11:03
Программа кодирования : mkvmerge v6.1.0 ('Old Devil') built on Mar 4 2013 09:10:42
Библиотека кодирования : libebml v1.3.0 + libmatroska v1.4.0

Видео
Идентификатор : 1
Формат : AVC
Формат/Информация : Advanced Video Codec
Профиль формата : [email protected]
Параметр CABAC формата : Да
Параметр RefFrames формата : 9 кадров
Идентификатор кодека : V_MPEG4/ISO/AVC
Продолжительность : 1 ч. 12 м.
Битрейт : 3500 Кбит/сек
Ширина : 1280 пикселей
Высота : 720 пикселей
Соотношение сторон : 16:9
Режим частоты кадров : Постоянный
Частота кадров : 25,000 кадров/сек
Цветовое пространство : YUV
Субдискретизация насыщенности : 4:2:0
Битовая глубина : 8 бит
Тип развёртки : Прогрессивная
Бит/(Пиксели*Кадры) : 0.152
Размер потока : 1,73 Гбайт (93%)
Библиотека кодирования : x264 core 130 r2273 b3065e6
Настройки программы : cabac=1 / ref=9 / deblock=1:-2:-1 / analyse=0x3:0x133 / me=umh / subme=9 / psy=1 / psy_rd=1.00:0.15 / mixed_ref=1 / me_range=32 / chroma_me=1 / trellis=2 / 8x8dct=1 / cqm=0 / deadzone=21,11 / fast_pskip=0 / chroma_qp_offset=-3 / threads=18 / lookahead_threads=3 / sliced_threads=0 / nr=0 / decimate=0 / interlaced=0 / bluray_compat=0 / constrained_intra=0 / bframes=9 / b_pyramid=2 / b_adapt=2 / b_bias=0 / direct=1 / weightb=1 / open_gop=0 / weightp=2 / keyint=250 / keyint_min=25 / scenecut=40 / intra_refresh=0 / rc=2pass / mbtree=0 / bitrate=3500 / ratetol=1.0 / qcomp=0.60 / qpmin=0 / qpmax=69 / qpstep=4 / cplxblur=20.0 / qblur=0.5 / ip_ratio=1.40 / pb_ratio=1.30 / aq=2:1.00
Default : Да
Forced : Нет
Цветовой диапазон : Limited
Основные цвета : BT.709
Характеристики трансфера : BT.709
Коэффициенты матрицы : BT.709

Аудио
Идентификатор : 2
Формат : AC-3
Формат/Информация : Audio Coding 3
Расширение режима : CM (complete main)
Параметр Endianness формата : Big
Идентификатор кодека : A_AC3
Продолжительность : 1 ч. 12 м.
Вид битрейта : Постоянный
Битрейт : 192 Кбит/сек
Каналы : 2 канала
Расположение каналов : Front: L R
Частота : 48,0 КГц
Частота кадров : 31,250 кадров/сек (1536 spf)
Метод сжатия : С потерями
Размер потока : 99,5 Мбайт (5%)
Default : Да
Forced : Нет




Скачать Оптимисты через торрент http://i91.fastpic.ru/big/2017/0424/33/91040b63f8ef6349f6eb8d8f47a6af33.png Скачать, смотреть онлайн Оптимисты бесплантно в хорошем качестве Описание: О советских дипломатах 1960-х годов. Они преданы своему делу и Родине. Они молоды, красивы, полны надежд и веры в будущее своей ... 10 10 2
Info! Серебряная раздача, засчитывается только 50% скачанного.
Торрент: Зарегистрирован [2018-04-02 20:27] · скачан: 63 раз
Статус: √ проверено
Размер: 17.06 GB
Как cкачать? Как скачать Оптимисты через торрент | UTorrent

% Раздел Тема Автор DL S | L
Наши сериалы [ 39.2 GB ] Оптимисты / Сезон: 1 / Серии: 1-13 из 13 | | HDTV 1080i bober100 Скачать
1 | 0
Наши сериалы [ 7.89 GB ] Оптимисты / Сезон: 1 / Серии: 1-13 из 13 | | SATRip bober100 Скачать
1 | 0
Наши сериалы [ 8.12 GB ] Оптимисты / Сезон: 1 / Серии: 1-13 из 13 | | HDTVRip bober100 Скачать
1 | 0
Наши сериалы [ 8.7 GB ] Оптимисты / Серии: 1-13 из 13 | | SATRip-AVC aleksan55 Скачать
1 | 0

28-11-2019 20:33  


Отключить вcю реклaмy на сайте, в т.ч. и в плеере онлайн просмотра!

02-04-2018 20:41 Оптимисты Скачать торрент  

Спасибо.



    Дорогой пользователь! Огромная просьба, поблагодарите релизера, оцените раздачу и оставьте свои комментарий, если Вы скачали Оптимисты через торрент бесплатно!!
    Комментировать посты могут только пользователи прошедшие не сложную регистрацию
    Показать сообщения:    


    Оптимисты через торрент
    Скачать бесплатно Оптимисты
    Оптимисты скачать торрент
    Оптимисты смотреть онлайн
    Cкачать фильм Оптимисты бесплатно
    Оптимисты скачать торрент в хорошем качестве
    Оптимисты смотреть онлайн бесплатно в хорошем качестве
    Вы не можете начинать темы
    Вы не можете отвечать на сообщения
    Вы не можете редактировать свои сообщения
    Вы не можете удалять свои сообщения
    Вы не можете голосовать в опросах
    Вы не можете прикреплять файлы к сообщениям
    Вы можете скачивать файлы