Ссылка на приватное зеркало нашего сайта всего за 1$. Внимание количество ограничено!!!

2 сезон

iTunes

1 сезон

1

2 сезон

2 сезон

iTunes

1 сезон

RePack

30

Ultimate

ВАЖНО

ИГРА 18+

pack

RePack

MK11
pack

Забери бонус

RePack

jed

!!Акция!!

Alien_Rage

RePack

fifa19

RePack

Assassins Creed: Odyssey

RePack

NEED FOR SPEED™ PAYBACK

4 сезон

9 сезон

Бесстыжие 9 сезон

Все сериалы

все сериалы на PB.wtf

RePack

FAR CRY 5
  

Сумеречные охотники / Shadowhunters / Сезон: 3 / Серии: 1-22 из 22 (Майрзи Алмас, Тауния Маккирнан, Энди Волк) [2018, фэнтези, боевик, драма, WEB-DL 720p] MVO [Jaskier] pb.wtf

Сумеречные охотники через торрент pb.wtf

Размер: 32.3 GB | Добавлен: 1 год 6 мес. назад | Торрент скачан:2 раза
Скачать  

03-04-2018 02:07 Сумеречные охотники Скачать торрент  

Сумеречные охотники / Shadowhunters Год выпуска: 2018
Страна: США
Жанр: фэнтези, боевик, драма
Продолжительность: ~ 00:44:00
Перевод: Профессиональный (многоголосый) | Jaskier
Субтитры: отсутствуют

Режиссер: Майрзи Алмас, Тауния Маккирнан, Энди Волк

rating

В ролях:

Кэтрин МакНамара, Доминик Шервуд, Альберто Розенде, Мэттью Даддарио, Эмерод Тубия, Айзая Мустафа, Гарри Шам мл., Алан Ван Спрэнг, Джон Кор, Джоэль Лабелль, Максим Рой, Паулино Нюнс, Стефани Беннетт, Джордан Хадима, Дэвид Кастро, Шэйлин Гарнетт, Кейтлин Вонг, Кристина Кокс, Джейд Хассун, Никола Коррейя-Дамуд

Описание:

Невзрачная и ничем не примечательная девушка Клэри Фрэй в свой 18-й день рождения узнает, что она является наследницей древнего семейства Сумеречных Охотников — таинственного клана полулюдей-полуангелов, которые обороняют мир от демонических тварей. После похищения матери девушка вместе со своим другом Саймоном и сумеречным охотником Джейсом пытается ее спасти и… попадает в другую реальность.

Качество: WEB-DL 720p
Формат: MKV

Видео: X264, ~ 3100 kbps, 1280x720 (16:9), 23.976 fps
Аудио#1: AC3, 48,0 КГц, 6 ch, 384 kbps - Rus
Аудио#2: AC3, 48,0 КГц, 6 ch, 384 kbps - Eng
скриншот   скриншот   скриншот  

Общее
Уникальный идентификатор : 230556493281066608946832433384419330023 (0xAD7390BFE896AFDFB32BA5E5670587E7)
Полное имя : D:\Shadowhunters. Сезон 3. (WEB-DL l 720p l JASKiER)\Shadowhunters.S03E01.720p. JASKiER.mkv
Формат : Matroska
Версия формата : Version 2
Размер файла : 1,15 Гбайт
Продолжительность : 42 м. 7 с.
Режим общего битрейта : Переменный
Общий поток : 3896 Кбит/сек
Дата кодирования : UTC 2018-04-02 18:50:30
Программа кодирования : mkvmerge v5.8.0 ('No Sleep / Pillow') built on Sep 2 2012 15:37:04
Библиотека кодирования : libebml v1.2.3 + libmatroska v1.3.0

Видео
Идентификатор : 1
Формат : AVC
Формат/Информация : Advanced Video Codec
Профиль формата : High@L3.1
Параметр CABAC формата : Да
Параметр RefFrames формата : 5 кадров
Идентификатор кодека : V_MPEG4/ISO/AVC
Продолжительность : 42 м. 7 с.
Вид битрейта : Переменный
Битрейт : 3051 Кбит/сек
Максимальный битрейт : 4500 Кбит/сек
Ширина : 1280 пикселей
Высота : 720 пикселей
Соотношение сторон : 16:9
Режим частоты кадров : Постоянный
Частота кадров : 23,976 (24000/1001) кадра/сек
Цветовое пространство : YUV
Субдискретизация насыщенности : 4:2:0
Битовая глубина : 8 бит
Тип развёртки : Прогрессивная
Бит/(Пиксели*Кадры) : 0.138
Размер потока : 919 Мбайт (78%)
Default : Да
Forced : Нет
Цветовой диапазон : Limited
Основные цвета : BT.709
Характеристики трансфера : BT.709
Коэффициенты матрицы : BT.709

Аудио #1
Идентификатор : 2
Формат : AC-3
Формат/Информация : Audio Coding 3
Расширение режима : CM (complete main)
Параметр Endianness формата : Big
Идентификатор кодека : A_AC3
Продолжительность : 42 м. 7 с.
Вид битрейта : Постоянный
Битрейт : 384 Кбит/сек
Каналы : 6 каналов
Расположение каналов : Front: L C R, Side: L R, LFE
Частота : 48,0 КГц
Частота кадров : 31,250 кадров/сек (1536 spf)
Метод сжатия : С потерями
Размер потока : 116 Мбайт (10%)
Язык : Russian
Default : Да
Forced : Нет

Аудио #2
Идентификатор : 3
Формат : AC-3
Формат/Информация : Audio Coding 3
Расширение режима : CM (complete main)
Параметр Endianness формата : Big
Идентификатор кодека : A_AC3
Продолжительность : 42 м. 7 с.
Вид битрейта : Постоянный
Битрейт : 384 Кбит/сек
Каналы : 6 каналов
Расположение каналов : Front: L C R, Side: L R, LFE
Частота : 48,0 КГц
Частота кадров : 31,250 кадров/сек (1536 spf)
Метод сжатия : С потерями
Размер потока : 116 Мбайт (10%)
Язык : English
Default : Нет
Forced : Нет

Внимание! Раздача ведётся путём добавления новых серий; при каждом добавлении создаётся новый торрент. Чтобы начать докачку новой серии, пользователям необходимо сделать следующее:
(1) остановить скачивание,
(2) удалить старый торрент у себя из клиента (старые серии удалять не надо),
(3) скачать новый торрент и запустить его у себя в клиенте вместо старого, при этом указать клиенту путь в старую папку куда и должно происходить скачивание новых серий.
Ваш клиент при этом должен произвести хеширование (проверку) старой папки (если не производит сам - помогите ему сделать это), и будет докачивать только те серии которых у вас ещё нет. Старые серии при этом не удаляются, а продолжают раздаваться!
Eсли вы уже удалили старые серии, то предотвратить повторную закачку старых серий можно, отжав галочку в соответствующих местах при запуске нового торрента. По возможности, желательно не удалять старые серии как можно дольше чтобы релизёр не столько продолжал раздавать старые серии, а смог сконцентрироваться на новых.
pb.wtf



Скачать Сумеречные охотники через торрент http://i91.fastpic.ru/big/2017/0114/fa/53dbff6d4fab29bf6e9382a65a580dfa.png Скачать фильм Сумеречные охотники через торрент бесплантно в хорошем качестве Описание: Невзрачная и ничем не примечательная девушка Клэри Фрэй в свой 18-й день рождения узнает, что она является наследницей древнего ... 8.2 10 5
Торрент: Зарегистрирован [2019-05-20 04:43] · скачан: 2 раз
Статус: √ проверено
Размер: 32.3 GB
Как cкачать? Как скачать Сумеречные охотники через торрент | qTorrent

% Раздел Тема Автор DL S | L
Зарубежные сериалы [ 9.78 GB ] Сумеречные охотники / Shadowhunters / Сезон: 3 / Серии: 1-22 из 22 [2018 WEB-DLRip] MVO [NewStudio] bober100 Скачать
1 | 0
Зарубежные сериалы [ 32.35 GB ] Сумеречные охотники / Shadowhunters / Сезон: 3 / Серии: 1-22 из 22 [2018 WEB-DL 720p] MVO [NewStudio] bober100 Скачать
1 | 0
Зарубежные сериалы [ 10.92 GB ] Сумеречные охотники / Shadowhunters / Сезон: 3 / Серии: 1-22 из 22 [2018 WEB-DLRip] MVO [Jaskier] bober100 Скачать
1 | 0

28-11-2019 20:33  

Отключить всю рекламу на сайте

    Дорогой пользователь! Огромная просьба, поблагодарите релизера, оцените раздачу и оставьте свои комментарий, если Вы скачали Сумеречные охотники через торрент бесплатно! Внесите свою лепту в развитие PiratBit!
    Комментировать посты могут только пользователи прошедшие не сложную регистрацию
    Показать сообщения:    

    Сумеречные охотники через торрент
    Скачать бесплатно Сумеречные охотники
    Сумеречные охотники скачать торрент
    Сумеречные охотники смотреть онлайн
    Cкачать фильм Сумеречные охотники бесплатно
    Сумеречные охотники скачать торрент в хорошем качестве
    Сумеречные охотники смотреть онлайн бесплатно в хорошем качестве


    Вы не можете начинать темы
    Вы не можете отвечать на сообщения
    Вы не можете редактировать свои сообщения
    Вы не можете удалять свои сообщения
    Вы не можете голосовать в опросах
    Вы не можете прикреплять файлы к сообщениям
    Вы можете скачивать файлы