2 сезон

iTunes

1 сезон

1

iTunes

iTunes

iTunes

1 сезон

RePack

30

ИГРА 18+

pack

ВАЖНО

!!Акция!!

Alien_RageХит недели

RePack

MK11
pack

Забери бонус

RePack

jed

!!Акция!!

Alien_Rage

RePack

fifa19

RePack

Assassins Creed: Odyssey

RePack

NEED FOR SPEED™ PAYBACK

4 сезон

9 сезон

Бесстыжие 9 сезон

Все сериалы

все сериалы на PB.wtf

RePack

FAR CRY 5
  

Оптимисты / Сезон: 1 / Серии: 1-13 из 13 (Алексей Попогребский) [2017, Драма, HDTV 1080i] pb.wtf

Оптимисты через торрент pb.wtf

Размер: 39.2 GB | Добавлен: 2 года 6 мес. назад | Торрент скачан:38 раз
Скачать  

03-04-2018 02:46 Оптимисты Скачать торрент  

ОптимистыГод выпуска: 2017
Страна: Россия
Жанр: Драма
Продолжительность: ~ 00:45:00
Субтитры: отсутствуют

Режиссер: Алексей Попогребский

rating

В ролях:

Владимир Вдовиченков, Северия Янушаускайте, Артём Быстров, Егор Корешков, Риналь Мухаметов, Анатолий Белый, Юрий Кузнецов, Евгения Брик, Виктория Исакова, Андрей Смирнов, Ольга Голуцкая, Маргарита Адаева, Марта Тимофеева, Пётр Рыков, Людмила Чиркова, Максим Виторган, Артем Волобуев, Юрий Уткин, Валерий Новиков, Валентин Самохин, Пьер Бурель, Настя Александрова, Андрей Стоянов, Роман Синицын, Клим Бердинский, Владимир Чуприков

Описание:

О советских дипломатах 1960-х годов. Они преданы своему делу и Родине. Они молоды, красивы, полны надежд и веры в будущее своей страны. И, конечно, в свое личное счастье.

Качество: HDTV 1080i
Формат: MPEG-TS

Видео: MPEG-4 AVC, ~ 7900 Кбит/с, 1920x1080, 25 кадр/с
Аудио: Русский (MP2, 2 ch, 192 Кбит/с)
скриншот   скриншот   скриншот  

Общее
Идентификатор : 1 (0x1)
Полное имя : D:\Optimisty.2017.HDTV.1080i\Optimisty.01.2017.HDTV.1080i.ts
Формат : MPEG-TS
Размер файла : 4,29 Гбайт
Продолжительность : 1 ч. 12 м.
Режим общего битрейта : Переменный
Общий поток : 8484 Кбит/сек

Видео
Идентификатор : 2911 (0xB5F)
Идентификатор меню : 1192 (0x4A8)
Формат : AVC
Формат/Информация : Advanced Video Codec
Профиль формата : High@L4
Параметр CABAC формата : Да
Параметр RefFrames формата : 4 кадра
Идентификатор кодека : 27
Продолжительность : 1 ч. 12 м.
Битрейт : 7871 Кбит/сек
Ширина : 1920 пикселей
Высота : 1080 пикселей
Соотношение сторон : 16:9
Частота кадров : 25,000 кадров/сек
Цветовое пространство : YUV
Субдискретизация насыщенности : 4:2:0
Битовая глубина : 8 бит
Тип развёртки : MBAFF
Метод сохранения типа развёртки : Чередующиеся поля
Порядок развёртки : Верхнее поле первое
Бит/(Пиксели*Кадры) : 0.152
Размер потока : 3,98 Гбайт (93%)

Аудио
Идентификатор : 2912 (0xB60)
Идентификатор меню : 1192 (0x4A8)
Формат : MPEG Audio
Версия формата : Version 1
Профиль формата : Layer 2
Режим : Joint stereo
Расширение режима : Intensity Stereo + MS Stereo
Идентификатор кодека : 3
Продолжительность : 1 ч. 12 м.
Вид битрейта : Постоянный
Битрейт : 192 Кбит/сек
Каналы : 2 канала
Частота : 48,0 КГц
Метод сжатия : С потерями
Размер потока : 99,5 Мбайт (2%)
Язык : Russian

pb.wtf



Скачать Оптимисты через торрент http://i91.fastpic.ru/big/2017/0424/33/91040b63f8ef6349f6eb8d8f47a6af33.png Скачать фильм Оптимисты через торрент бесплантно в хорошем качестве Описание: О советских дипломатах 1960-х годов. Они преданы своему делу и Родине. Они молоды, красивы, полны надежд и веры в будущее своей ... 10 10 2
Info! Золотая раздача, скачанное не засчитывается.
Торрент: Зарегистрирован [2018-04-03 02:46] · скачан: 38 раз
Статус: √ проверено
Размер: 39.2 GB
Как cкачать? Как скачать Оптимисты через торрент | qTorrent

% Раздел Тема Автор DL S | L
Наши сериалы [ 17.06 GB ] Оптимисты / Сезон: 1 / Серии: 1-13 из 13 [2017 HDTVRip 720p] bober100 Скачать
1 | 0
Наши сериалы [ 7.89 GB ] Оптимисты / Сезон: 1 / Серии: 1-13 из 13 [2017 SATRip] bober100 Скачать
2 | 0
Наши сериалы [ 8.12 GB ] Оптимисты / Сезон: 1 / Серии: 1-13 из 13 [2017 HDTVRip] bober100 Скачать
2 | 0

28-11-2019 20:33  

Отключить всю рекламу на сайте

    Дорогой пользователь! Огромная просьба, поблагодарите релизера, оцените раздачу и оставьте свои комментарий, если Вы скачали Оптимисты через торрент бесплатно! Внесите свою лепту в развитие PiratBit!
    Комментировать посты могут только пользователи прошедшие не сложную регистрацию
    Показать сообщения:    

    Оптимисты через торрент
    Скачать бесплатно Оптимисты
    Оптимисты скачать торрент
    Оптимисты смотреть онлайн
    Cкачать фильм Оптимисты бесплатно
    Оптимисты скачать торрент в хорошем качестве
    Оптимисты смотреть онлайн бесплатно в хорошем качестве


    Вы не можете начинать темы
    Вы не можете отвечать на сообщения
    Вы не можете редактировать свои сообщения
    Вы не можете удалять свои сообщения
    Вы не можете голосовать в опросах
    Вы не можете прикреплять файлы к сообщениям
    Вы можете скачивать файлы