Ссылка на приватное зеркало нашего сайта всего за 1$. Внимание количество ограничено!!!

2 сезон

iTunes

1 сезон

1

2 сезон

2 сезон

iTunes

1 сезон

RePack

30

Ultimate

ВАЖНО

ИГРА 18+

pack

RePack

MK11
pack

Забери бонус

RePack

jed

!!Акция!!

Alien_Rage

RePack

fifa19

RePack

Assassins Creed: Odyssey

RePack

NEED FOR SPEED™ PAYBACK

4 сезон

9 сезон

Бесстыжие 9 сезон

Все сериалы

все сериалы на PB.wtf

RePack

FAR CRY 5
  

Роксана Роксана / Roxanne Roxanne (Майкл Ларнел) [2017, Драма, WEB-DL 1080p] MVO [HDrezka Studio] pb.wtf

Роксана Роксана через торрент pb.wtf

Размер: 3.47 GB | Добавлен: 2 года 7 мес. назад | Торрент скачан:43 раза
Скачать  

03-04-2018 06:58 Роксана Роксана Скачать торрент  

Роксана Роксана / Roxanne RoxanneГод выпуска: 2017
Страна: США
Жанр: Драма
Продолжительность: 01:40:12
Перевод: Профессиональный (многоголосый) | HDRezka studio
Субтитры: английские

Режиссер: Майкл Ларнел

rating

В ролях:

Махершала Али, Ниа Лонг. Адам Хоровиц. Жермен Кроуфорд. Кевин Филлипс. Тони Патано. Шенелл Эдмондс. Элвис Ноласко. Синди Чунг, Шон Рейнгголд

Описание:

Фильм, основанный на реальных событиях, расскажет о жизни известной рэп-исполнительницы Роксаны Шанте.
Лолита Шанте Гуден родилась в бедной семье, проживающей в одном из неблагополучных районов Нью-Йорка – Квинсбридже. Будучи еще совсем малышкой, Шанте начала читать рэп, участвуя в местных рэп-баттлах, чтобы заработать хоть немного денег для семьи. Но настоящую славу певица получила в четырнадцать лет, когда в ответ на скандально известную песню «Роксана, Роксана» она записала трек "Месть Роксаны", ставший одним из первых в истории рэпа диссов.

Качество: WEB-DL 1080p
Формат: MKV

Видео: MPEG-4 AVC, 4288 Кбит/с, 1920x794
Аудио#1: Русский (AC3, 2 ch, 192 Кбит/с)
Аудио#2: английский (AC3, 6 ch, 384 Кбит/с)
скриншот   скриншот   скриншот  

Общее
Уникальный идентификатор : 238334328512964484102855259378123603811 (0xB34D85A22CF87DCE9ED3783D5C38FF63)
Полное имя : D:\Roxanne.Roxanne.2017.1080p.WEB-DL.Rustorrents.mkv
Формат : Matroska
Версия формата : Version 2
Размер файла : 3,47 Гбайт
Продолжительность : 1 ч. 40 м.
Общий поток : 4962 Кбит/сек
Дата кодирования : UTC 2018-04-03 05:30:32
Программа кодирования : mkvmerge v7.8.0 ('River Man') 32bit built on Apr 3 2015 12:11:22
Библиотека кодирования : libebml v1.3.1 + libmatroska v1.4.2

Видео
Идентификатор : 1
Формат : AVC
Формат/Информация : Advanced Video Codec
Профиль формата : Main@L4
Параметр CABAC формата : Да
Параметр RefFrames формата : 2 кадра
Идентификатор кодека : V_MPEG4/ISO/AVC
Продолжительность : 1 ч. 40 м.
Битрейт : 4288 Кбит/сек
Ширина : 1920 пикселей
Высота : 794 пикселя
Соотношение сторон : 2,40:1
Режим частоты кадров : Постоянный
Частота кадров : 23,976 (24000/1001) кадра/сек
Цветовое пространство : YUV
Субдискретизация насыщенности : 4:2:0
Битовая глубина : 8 бит
Тип развёртки : Прогрессивная
Бит/(Пиксели*Кадры) : 0.117
Размер потока : 3,00 Гбайт (86%)
Default : Да
Forced : Нет

Аудио #1
Идентификатор : 2
Формат : AC-3
Формат/Информация : Audio Coding 3
Расширение режима : CM (complete main)
Параметр Endianness формата : Big
Идентификатор кодека : A_AC3
Продолжительность : 1 ч. 40 м.
Вид битрейта : Постоянный
Битрейт : 192 Кбит/сек
Каналы : 2 канала
Расположение каналов : Front: L R
Частота : 48,0 КГц
Частота кадров : 31,250 кадров/сек (1536 spf)
Метод сжатия : С потерями
Размер потока : 138 Мбайт (4%)
Заголовок : HDrezka
Язык : Russian
Default : Да
Forced : Да

Аудио #2
Идентификатор : 3
Формат : AC-3
Формат/Информация : Audio Coding 3
Расширение режима : CM (complete main)
Параметр Endianness формата : Big
Идентификатор кодека : A_AC3
Продолжительность : 1 ч. 40 м.
Вид битрейта : Постоянный
Битрейт : 384 Кбит/сек
Каналы : 6 каналов
Расположение каналов : Front: L C R, Side: L R, LFE
Частота : 48,0 КГц
Частота кадров : 31,250 кадров/сек (1536 spf)
Метод сжатия : С потерями
Размер потока : 275 Мбайт (8%)
Заголовок : English
Язык : English
Default : Нет
Forced : Нет

Текст #1
Идентификатор : 4
Формат : UTF-8
Идентификатор кодека : S_TEXT/UTF8
Идентификатор кодека/Информация : UTF-8 Plain Text
Язык : English
Default : Нет
Forced : Нет

Текст #2
Идентификатор : 5
Формат : UTF-8
Идентификатор кодека : S_TEXT/UTF8
Идентификатор кодека/Информация : UTF-8 Plain Text
Заголовок : SDH
Язык : English
Default : Нет
Forced : Нет

pb.wtf



Скачать Роксана Роксана через торрент http://img12.lostpic.net/2018/04/03/3bd4ce9b78a9b4cd8b7e466b6695cdbb.jpg Скачать фильм Роксана Роксана через торрент бесплантно в хорошем качестве Описание: Фильм, основанный на реальных событиях, расскажет о жизни известной рэп-исполнительницы Роксаны Шанте.Лолита Шанте Гуден родилась ... 10 10 3
Торрент: Зарегистрирован [2018-04-03 06:58] · скачан: 43 раз
Статус: √ проверено
Размер: 3.47 GB
Как cкачать? Как скачать Роксана Роксана через торрент | qTorrent

% Раздел Тема Автор DL S | L
Фильмы (WEB-DL 720p, 1080p) [ 9.05 GB ] Зевс и Роксана / Zeus and Roxanne [1997 WEB-DL 1080p] MVO + DVO + AVO - KORSAR kisa1980 Скачать
1 | 0
Фильмы 2017 [DVDrip, WEB-DLRip, HDrip] (DUB, MVO) [ 1.37 GB ] Роксана Роксана / Roxanne Roxanne [2017 WEB-DLRip] MVO [HDrezka Studio] bober100 Скачать
1 | 0
Фильмы до 2000 г. [ 1.37 GB ] Зевс и Роксана / Zeus and Roxanne [1997 DVDRip ] wowan2011 Скачать
1 | 0

28-11-2019 20:33  

Отключить всю рекламу на сайте

    Дорогой пользователь! Огромная просьба, поблагодарите релизера, оцените раздачу и оставьте свои комментарий, если Вы скачали Роксана Роксана через торрент бесплатно! Внесите свою лепту в развитие PiratBit!
    Комментировать посты могут только пользователи прошедшие не сложную регистрацию
    Показать сообщения:    

    Роксана Роксана через торрент
    Скачать бесплатно Роксана Роксана
    Роксана Роксана скачать торрент
    Роксана Роксана смотреть онлайн
    Cкачать фильм Роксана Роксана бесплатно
    Роксана Роксана скачать торрент в хорошем качестве
    Роксана Роксана смотреть онлайн бесплатно в хорошем качестве


    Вы не можете начинать темы
    Вы не можете отвечать на сообщения
    Вы не можете редактировать свои сообщения
    Вы не можете удалять свои сообщения
    Вы не можете голосовать в опросах
    Вы не можете прикреплять файлы к сообщениям
    Вы можете скачивать файлы