Ссылка на приватное зеркало всего за 1$. Внимание количество ограничено!!!

iTunes

iTunes

iTunes

1

iTunes

iTunes

iTunes

WEBRip

iTunes

30
pack

$ от Little Big

ВАЖНО

!!Акция!!

Alien_RageХит недели

RePack

Resident Evil 21

ИГРА 18+

pack

RePack

jed

!!Акция!!

Alien_Rage

RePack

fifa19

RePack

Assassins Creed: Odyssey

RePack

NEED FOR SPEED™ PAYBACK

4 сезон

9 сезон

Бесстыжие 9 сезон

Все сериалы

все сериалы на PB.wtf

RePack

FAR CRY 5
  

Мёртвые девушки / Dead Girls (Нил Фишер, Дель Харви) [2014, ужасы, триллер, BDRip 720p] MVO ["Синема УС"] pb.wtf

Мёртвые девушки через торрент pb.wtf

Размер: 4.17 GB | Добавлен: 2 года 4 мес. назад | Торрент скачан:23 раза
Скачать  

03-04-2018 07:51 Мёртвые девушки Скачать торрент  

Мёртвые девушки / Dead GirlsГод выпуска: 2014
Страна: США
Жанр: ужасы, триллер
Продолжительность: 01:32:56
Перевод: Любительский (многоголосый) | "Синема УС"
Субтитры: отсутствуют

Режиссер: Нил Фишер, Дель Харви

rating

В ролях:

Джессика Галанг, Джозеф Луис Кабальеро, Ребекка Маллинз, Обри Джойс Туннелл, Ник Кардифф, Мэтти Робинсон, Крэйг Сандерлин, Шеннон Бакел, Мадалин Мэтси, Али Хэдли

Описание:

История униженных и замученных девушек, которые возвращаются из мёртвых, чтобы отомстить своим обидчикам самыми изощрёнными способами.

Качество: BDRip 720p
Формат: MKV

Видео: 5967 Кбит/с, 1280x720
Аудио#1: AC3, 2 ch, 448 Кбит/с
скриншот  скриншот  скриншот  

Общее
Уникальный идентификатор : 251241027130466876020825210694047662498 (0xBD03430173E76F779CF38C2B8CE081A2)
Полное имя : D:\dead.girls.2014.P.BDRip.72Op_KOSHARA.mkv
Формат : Matroska
Версия формата : Version 2
Размер файла : 4,17 Гбайт
Продолжительность : 1 ч. 32 м.
Режим общего битрейта : Переменный
Общий поток : 6417 Кбит/сек
Дата кодирования : UTC 2018-04-02 20:11:37
Программа кодирования : mkvmerge v8.3.0 ('Over the Horizon') 64bit
Библиотека кодирования : libebml v1.3.1 + libmatroska v1.4.2

Видео
Идентификатор : 1
Формат : AVC
Формат/Информация : Advanced Video Codec
Профиль формата : High@L4.1
Параметр CABAC формата : Да
Параметр RefFrames формата : 4 кадра
Идентификатор кодека : V_MPEG4/ISO/AVC
Продолжительность : 1 ч. 32 м.
Вид битрейта : Переменный
Битрейт : 5967 Кбит/сек
Максимальный битрейт : 6700 Кбит/сек
Ширина : 1280 пикселей
Высота : 720 пикселей
Соотношение сторон : 16:9
Режим частоты кадров : Постоянный
Частота кадров : 23,976 (24000/1001) кадра/сек
Стандарт вещания : Component
Цветовое пространство : YUV
Субдискретизация насыщенности : 4:2:0
Битовая глубина : 8 бит
Тип развёртки : Прогрессивная
Бит/(Пиксели*Кадры) : 0.264
Размер потока : 3,79 Гбайт (91%)
Default : Да
Forced : Нет
Цветовой диапазон : Limited
Основные цвета : BT.709
Характеристики трансфера : BT.709
Коэффициенты матрицы : BT.709

Аудио
Идентификатор : 2
Формат : AC-3
Формат/Информация : Audio Coding 3
Расширение режима : CM (complete main)
Параметр Endianness формата : Big
Идентификатор кодека : A_AC3
Продолжительность : 1 ч. 32 м.
Вид битрейта : Постоянный
Битрейт : 448 Кбит/сек
Каналы : 2 канала
Расположение каналов : Front: L R
Частота : 48,0 КГц
Частота кадров : 31,250 кадров/сек (1536 spf)
Метод сжатия : С потерями
Размер потока : 298 Мбайт (7%)
Default : Да
Forced : Нет

pb.wtf



Скачать Мёртвые девушки через торрент http://img12.lostpic.net/2018/04/03/649de0434b969db083e413f3e55fcbf4.jpg Скачать фильм Мёртвые девушки через торрент бесплантно в хорошем качестве Описание: История униженных и замученных девушек, которые возвращаются из мёртвых, чтобы отомстить своим обидчикам самыми изощрёнными ... 7 10 6
Торрент: Зарегистрирован [2018-04-03 07:51] · скачан: 23 раз
Статус: # сомнительно
Размер: 4.17 GB
Как cкачать? Как скачать Мёртвые девушки через торрент | qTorrent

% Раздел Тема Автор DL S | L
T Фильмы (мультфильмы) cо спонсором показа (Новинки AVI/MKV) [ 1.37 GB ] Мёртвые девушки / Dead Girls [2014 HDRip] MVO ["Синема УС"] bober100 Скачать
1 | 0

28-11-2019 20:33  

Отключить всю рекламу на сайте

    Дорогой пользователь! Огромная просьба, поблагодарите релизера, оцените раздачу и оставьте свои комментарий, если Вы скачали Мёртвые девушки через торрент бесплатно! Внесите свою лепту в развитие PiratBit!
    Комментировать посты могут только пользователи прошедшие не сложную регистрацию
    Показать сообщения:    

    Мёртвые девушки через торрент
    Скачать бесплатно Мёртвые девушки
    Мёртвые девушки скачать торрент
    Мёртвые девушки смотреть онлайн
    Cкачать фильм Мёртвые девушки бесплатно
    Мёртвые девушки скачать торрент в хорошем качестве
    Мёртвые девушки смотреть онлайн бесплатно в хорошем качестве


    Вы не можете начинать темы
    Вы не можете отвечать на сообщения
    Вы не можете редактировать свои сообщения
    Вы не можете удалять свои сообщения
    Вы не можете голосовать в опросах
    Вы не можете прикреплять файлы к сообщениям
    Вы можете скачивать файлы