Ссылка на приватное зеркало нашего сайта всего за 1$. Внимание количество ограничено!!!

2 сезон

iTunes

1 сезон

1

2 сезон

2 сезон

iTunes

1 сезон

RePack

30

Ultimate

ВАЖНО

ИГРА 18+

pack

RePack

MK11
pack

Забери бонус

RePack

jed

!!Акция!!

Alien_Rage

RePack

fifa19

RePack

Assassins Creed: Odyssey

RePack

NEED FOR SPEED™ PAYBACK

4 сезон

9 сезон

Бесстыжие 9 сезон

Все сериалы

все сериалы на PB.wtf

RePack

FAR CRY 5
  

Конмэн / Con Man / Сезон: 1 / Серии: 1-13 из 13 (Алан Тьюдик) [2015, комедия, WEB-DL 1080p] MVO [Jaskier] pb.wtf

Конмэн через торрент pb.wtf

Размер: 5.65 GB | Добавлен: 2 года 7 мес. назад | Торрент скачан:5 раз
Скачать  

03-04-2018 08:27 Конмэн Скачать торрент  

Конмэн / Con Man
Год выпуска: 2015
Страна: США скриншот  
Жанр: комедия
Продолжительность: ~00:11:00
Перевод: Профессиональный (многоголосый) | Jaskier
Субтитры: Русские (серии 1-6)

Режиссер: Алан Тьюдик

rating

В ролях:

Алан Тьюдик, Нэйтан Филлион, Минди Стерлинг, Каспер Ван Дин, Триша Хелфер, Эми Акер, Генри Роллинз, Лиза Лапира, Элисон Хэйслип

Описание:

Сериал рассказывает об актёре, когда-то сыгравшем пилота в культовом, но преждевременно закрытом космоэпике под названием «Спектрум». С тех пор он регулярно ездил на фестивали типа Комиккона, где встречался с самыми разными забавными людьми и плескался в лучах не особо прибыльной, но всё равно приятной славы. А вместе с ним на эти фестивали ездил его друг, игравший в «Спектруме» капитана, и в итоге ставший единственным актёром из этого сериала, который добился звёздного статуса...

Качество: WEB-DL 1080p
Формат: MKV

Видео: 1920x1080 (16:9), 23.976 fps, MPEG-4 AVC ~4 500 kbps avg
Аудио#1: 48.0 kHz, AC3 Dolby Digital, 2/0 (L,R) ch, ~192.00 kbps | RUS
Аудио#2: 48.0 kHz, Advanced Audio Codec LC, 2/0 (L,R) ch, ~192 kbps | ENG
скриншот   скриншот   скриншот   скриншот   скриншот  

Общее
Уникальный идентификатор : 238482210746910994460253763537704692510 (0xB36A00CA61F61375B35B2BBDE0C5AB1E)
Полное имя : D:\Con_Man.S01.1080p.WEB-DL.Rus.Eng.HDCLUB\Con_Man.S01E01.Stalled.1080p.WEB-DL.Rus.Eng.HDCLUB.mkv
Формат : Matroska
Версия формата : Version 4 / Version 2
Размер файла : 386 Мбайт
Продолжительность : 10 м. 55 с.
Общий поток : 4937 Кбит/сек
Дата кодирования : UTC 2015-11-29 11:07:52
Программа кодирования : mkvmerge v8.6.0 ('A Place In Your World') 64bit
Библиотека кодирования : libebml v1.3.3 + libmatroska v1.4.4

Видео
Идентификатор : 1
Формат : AVC
Формат/Информация : Advanced Video Codec
Профиль формата : High@L4
Параметр CABAC формата : Да
Параметр RefFrames формата : 4 кадра
Идентификатор кодека : V_MPEG4/ISO/AVC
Продолжительность : 10 м. 55 с.
Битрейт : 4486 Кбит/сек
Ширина : 1920 пикселей
Высота : 1080 пикселей
Соотношение сторон : 16:9
Режим частоты кадров : Постоянный
Частота кадров : 23,976 (24000/1001) кадра/сек
Цветовое пространство : YUV
Субдискретизация насыщенности : 4:2:0
Битовая глубина : 8 бит
Тип развёртки : Прогрессивная
Бит/(Пиксели*Кадры) : 0.090
Размер потока : 351 Мбайт (91%)
Заголовок : Con Man. Season 01 Episode 01 "Stalled"
Язык : English
Default : Нет
Forced : Нет
Цветовой диапазон : Limited
Основные цвета : BT.709
Характеристики трансфера : BT.709
Коэффициенты матрицы : BT.709

Аудио #1
Идентификатор : 2
Формат : AC-3
Формат/Информация : Audio Coding 3
Расширение режима : CM (complete main)
Параметр Endianness формата : Big
Идентификатор кодека : A_AC3
Продолжительность : 10 м. 55 с.
Вид битрейта : Постоянный
Битрейт : 192 Кбит/сек
Каналы : 2 канала
Расположение каналов : Front: L R
Частота : 48,0 КГц
Частота кадров : 31,250 кадров/сек (1536 spf)
Метод сжатия : С потерями
Размер потока : 15,0 Мбайт (4%)
Заголовок : AC3 2.0 @ 192 kbps - Jaskier
Язык : Russian
Default : Да
Forced : Нет

Аудио #2
Идентификатор : 3
Формат : AAC
Формат/Информация : Advanced Audio Codec
Профиль формата : LC
Идентификатор кодека : A_AAC
Продолжительность : 10 м. 55 с.
Битрейт : 256 Кбит/сек
Каналы : 2 канала
Расположение каналов : Front: L R
Частота : 48,0 КГц
Частота кадров : 46,875 кадров/сек (1024 spf)
Метод сжатия : С потерями
Размер потока : 20,0 Мбайт (5%)
Заголовок : AAC 2.0
Язык : English
Default : Нет
Forced : Нет

Текст
Идентификатор : 4
Формат : UTF-8
Идентификатор кодека : S_TEXT/UTF8
Идентификатор кодека/Информация : UTF-8 Plain Text
Продолжительность : 10 м. 18 с.
Битрейт : 166 бит/сек
ElementCount : 234
Размер потока : 12,5 Кбайт (0%)
Язык : Russian
Default : Нет
Forced : Нет

pb.wtf



Скачать Конмэн через торрент http://i053.radikal.ru/1611/de/3d05f1bf0d25.png Скачать фильм Конмэн через торрент бесплантно в хорошем качестве Описание: Сериал рассказывает об актёре, когда-то сыгравшем пилота в культовом, но преждевременно закрытом космоэпике под названием ... 10 10 3
Торрент: Зарегистрирован [2018-04-03 08:27] · скачан: 5 раз
Статус: √ проверено
Размер: 5.65 GB
Как cкачать? Как скачать Конмэн через торрент | qTorrent

28-11-2019 20:33  

Отключить всю рекламу на сайте

    Дорогой пользователь! Огромная просьба, поблагодарите релизера, оцените раздачу и оставьте свои комментарий, если Вы скачали Конмэн через торрент бесплатно! Внесите свою лепту в развитие PiratBit!
    Комментировать посты могут только пользователи прошедшие не сложную регистрацию
    Показать сообщения:    

    Конмэн через торрент
    Скачать бесплатно Конмэн
    Конмэн скачать торрент
    Конмэн смотреть онлайн
    Cкачать фильм Конмэн бесплатно
    Конмэн скачать торрент в хорошем качестве
    Конмэн смотреть онлайн бесплатно в хорошем качестве


    Вы не можете начинать темы
    Вы не можете отвечать на сообщения
    Вы не можете редактировать свои сообщения
    Вы не можете удалять свои сообщения
    Вы не можете голосовать в опросах
    Вы не можете прикреплять файлы к сообщениям
    Вы можете скачивать файлы