Ссылка на приватное зеркало всего за 1$. Внимание количество ограничено!!!

OK

1+1

iTunes

мы

OK

1

WEB-DLRip

Джокер

Пифагор

Ведьмак / The Witcher сериал

iTunes

ПШазам

ОК

Оно 2

iTunes

30
pack

Вам бонус

ВАЖНО

!!Акция!!

Alien_RageХит недели

RePack

Resident Evil 21

ИГРА 18+

pack

RePack

jed

RePack

fifa19

RePack

Assassins Creed: Odyssey

RePack

NEED FOR SPEED™ PAYBACK

4 сезон

9 сезон

Бесстыжие 9 сезон

Все сериалы

все сериалы на PB.wtf

RePack

FAR CRY 5
  

Другой брат / El otro hermano (Адриан Каэтано) [2017, триллер, драма, криминал, WEB-DL 720p] MVO [AlphaProject] pb.wtf

Другой брат через торрент pb.wtf

Размер: 4.09 GB | Добавлен: 1 год 9 мес. назад | Торрент скачан:61 раз
Скачать  

03-04-2018 10:54 Другой брат Скачать торрент  

Другой брат / El otro hermanoГод выпуска: 2017
Страна: Аргентина, Уругвай, Испания, Франция
Жанр: триллер, драма, криминал
Продолжительность: 01:55:06
Перевод: Любительский (многоголосый) | AlphaProject
Субтитры: отсутствуют

Режиссер: Адриан Каэтано

rating


В ролях:

Леонардо Сбараглиа, Даниэль Хендлер, Анхела Молина, Алиан Деветак, Пабло Седрон, Алехандра Флейшнер, Эрасмо Оливера

Описание:

Хавьер Сетарте хочет уехать в Бразилию и копит деньги на поездку. Тем временем, его внезапно вызывают в маленький городок, где жестоко были убиты его мать и брат. Местный предприимчивый делец Дуарте предлагает Хавьеру получить страховку за жизнь его матери и ещё кое-чем подзаработать.

Качество: WEB-DL 720p
Формат: MKV

Видео: 4702 Кбит/с, 1280x692
Аудио#1: AC3, 2 ch, 384 Кбит/с
скриншот  скриншот  скриншот  

Общее
Уникальный идентификатор : 178618524538703245755583670356809626289 (0x8660AD2F4F3A8E4A8D9B5A99459C32B1)
Полное имя : D:\The.Lost.Brother.2017.P.WEB-DL.72Op_KOSHARA.mkv
Формат : Matroska
Версия формата : Version 2
Размер файла : 4,09 Гбайт
Продолжительность : 1 ч. 55 м.
Режим общего битрейта : Переменный
Общий поток : 5088 Кбит/сек
Дата кодирования : UTC 2018-04-02 18:30:53
Программа кодирования : mkvmerge v8.3.0 ('Over the Horizon') 64bit
Библиотека кодирования : libebml v1.3.1 + libmatroska v1.4.2

Видео
Идентификатор : 1
Формат : AVC
Формат/Информация : Advanced Video Codec
Профиль формата : High@L4.1
Параметр CABAC формата : Да
Параметр RefFrames формата : 4 кадра
Идентификатор кодека : V_MPEG4/ISO/AVC
Продолжительность : 1 ч. 55 м.
Вид битрейта : Переменный
Битрейт : 4702 Кбит/сек
Максимальный битрейт : 5200 Кбит/сек
Ширина : 1280 пикселей
Высота : 692 пикселя
Соотношение сторон : 1,85:1
Режим частоты кадров : Постоянный
Частота кадров : 23,976 (24000/1001) кадра/сек
Стандарт вещания : Component
Цветовое пространство : YUV
Субдискретизация насыщенности : 4:2:0
Битовая глубина : 8 бит
Тип развёртки : Прогрессивная
Бит/(Пиксели*Кадры) : 0.217
Размер потока : 3,70 Гбайт (90%)
Default : Да
Forced : Нет
Цветовой диапазон : Limited
Основные цвета : BT.709
Характеристики трансфера : BT.709
Коэффициенты матрицы : BT.709

Аудио
Идентификатор : 2
Формат : AC-3
Формат/Информация : Audio Coding 3
Расширение режима : CM (complete main)
Параметр Endianness формата : Big
Идентификатор кодека : A_AC3
Продолжительность : 1 ч. 55 м.
Вид битрейта : Постоянный
Битрейт : 384 Кбит/сек
Каналы : 2 канала
Расположение каналов : Front: L R
Частота : 48,0 КГц
Частота кадров : 31,250 кадров/сек (1536 spf)
Метод сжатия : С потерями
Размер потока : 316 Мбайт (8%)
Default : Да
Forced : Нет

pb.wtf



Скачать Другой брат через торрент http://img12.lostpic.net/2018/04/03/42cef7365962c9e6524cd7d890c2850c.jpg Скачать фильм Другой брат через торрент бесплантно в хорошем качестве Описание: Хавьер Сетарте хочет уехать в Бразилию и копит деньги на поездку. Тем временем, его внезапно вызывают в маленький городок, где ... 10 10 3
Торрент: Зарегистрирован [2018-04-03 10:54] · скачан: 61 раз
Статус: T временная
Размер: 4.09 GB
Как cкачать? Как скачать Другой брат через торрент | qTorrent

% Раздел Тема Автор DL S | L
T Фильмы (мультфильмы) cо спонсором показа (Новинки AVI/MKV) [ 1.46 GB ] Другой брат / El otro hermano [2017 WEB-DLRip] MVO [AlphaProject] bober100 Скачать
2 | 0

28-11-2019 20:33  

Отключить всю рекламу на сайте

03-04-2018 13:26 Другой брат Скачать торрент  

фильм видимо путевый.забираю.pb.wtf



    Дорогой пользователь! Огромная просьба, поблагодарите релизера, оцените раздачу и оставьте свои комментарий, если Вы скачали Другой брат через торрент бесплатно! Внесите свою лепту в развитие PiratBit!
    Комментировать посты могут только пользователи прошедшие не сложную регистрацию
    Показать сообщения:    

    Другой брат через торрент
    Скачать бесплатно Другой брат
    Другой брат скачать торрент
    Другой брат смотреть онлайн
    Cкачать фильм Другой брат бесплатно
    Другой брат скачать торрент в хорошем качестве
    Другой брат смотреть онлайн бесплатно в хорошем качестве


    Вы не можете начинать темы
    Вы не можете отвечать на сообщения
    Вы не можете редактировать свои сообщения
    Вы не можете удалять свои сообщения
    Вы не можете голосовать в опросах
    Вы не можете прикреплять файлы к сообщениям
    Вы можете скачивать файлы