Ссылка на приватное зеркало нашего сайта всего за 1$. Внимание количество ограничено!!!

2 сезон

iTunes

1 сезон

1

2 сезон

2 сезон

iTunes

1 сезон

RePack

30

Новинка

ВАЖНО

ИГРА 18+

pack

RePack

MK11
pack

Забери бонус

RePack

jed

!!Акция!!

Alien_Rage

RePack

fifa19

RePack

Assassins Creed: Odyssey

RePack

NEED FOR SPEED™ PAYBACK

4 сезон

9 сезон

Бесстыжие 9 сезон

Все сериалы

все сериалы на PB.wtf

RePack

FAR CRY 5
  

Траст / Trust / Сезон: 1 / Серии: 1-10 из 10 (Дэнни Бойл, Доун Шадфорт, Джонатан ван Тюллекен) [2018, Драма, криминал, WEB-DL 1080p] MVO [Амедиа] pb.wtf

Траст через торрент pb.wtf

Размер: 21.68 GB | Добавлен: 2 года 4 мес. назад | Торрент скачан:19 раз
Скачать  

03-04-2018 11:10 Траст Скачать торрент  

Траст / Trust
Год выпуска: 2018
Страна: США, Великобритания
Жанр: Драма, криминал
Продолжительность: ~ 01:02:00
Перевод: Профессиональный многоголосый | Amedia
Субтитры: Russian (Amedia), English

Режиссер: Дэнни Бойл, Доун Шадфорт, Джонатан ван Тюллекен

rating

В ролях:

Брендан Фрейзер, Харрис Дикинсон, Майкл Эспер, Дональд Сазерленд, Хилари Суэнк, Андреа Арканджели, Лука Маринелли, Сайлас Карсон, Франческо Колелла

Описание:

Жан Пол Гетти — один из богатейших людей в истории. У него больше денег, чем способен потратить один человек за несколько жизней. Но подобные богатства не даются без труда, а вокруг всегда найдутся те, кто хочет оторвать кусок лакомого пирога.

Качество: WEB-DL 1080p
Формат: MKV

Видео: 1916x956 at 23.976 fps, MPEG-4 AVC, ~5000 kbps avg
Аудио#1: Russian: 48 kHz, AC3, 2/0 (L,R) ch, ~192 kbps avg |Многоголосый закадровый, Amedia|
Аудио#2: English: 48 kHz, AC3, 3/2 (L,C,R,l,r) + LFE ch, ~384 kbps avg
скриншот   скриншот   скриншот   скриншот  

Общее
Уникальный идентификатор : 178267732846162760950546274691972380527 (0x861D1DD1ACF0677D44B2F20FCEE4B76F)
Полное имя : D:\Trust.2018.S01.WEB-DL.1080P\Trust.S01E01.1080p.WEB-DL.DD5.1.H264.RUS.SRT.mkv
Формат : Matroska
Версия формата : Version 4 / Version 2
Размер файла : 2,50 Гбайт
Продолжительность : 1 ч. 4 м.
Общий поток : 5521 Кбит/сек
Дата кодирования : UTC 2018-04-03 07:53:38
Программа кодирования : mkvmerge v22.0.0 ('At The End Of The World') 64-bit
Библиотека кодирования : libebml v1.3.5 + libmatroska v1.4.8

Видео
Идентификатор : 1
Формат : AVC
Формат/Информация : Advanced Video Codec
Профиль формата : High@L4
Параметр CABAC формата : Да
Параметр RefFrames формата : 4 кадра
Идентификатор кодека : V_MPEG4/ISO/AVC
Продолжительность : 1 ч. 4 м.
Битрейт : 4943 Кбит/сек
Ширина : 1916 пикселей
Высота : 956 пикселей
Соотношение сторон : 2,004
Режим частоты кадров : Постоянный
Частота кадров : 23,976 (24000/1001) кадра/сек
Цветовое пространство : YUV
Субдискретизация насыщенности : 4:2:0
Битовая глубина : 8 бит
Тип развёртки : Прогрессивная
Бит/(Пиксели*Кадры) : 0.113
Размер потока : 2,24 Гбайт (90%)
Язык : English
Default : Да
Forced : Нет
Цветовой диапазон : Limited
Основные цвета : BT.709
Характеристики трансфера : BT.709
Коэффициенты матрицы : BT.709

Аудио #1
Идентификатор : 2
Формат : AC-3
Формат/Информация : Audio Coding 3
Расширение режима : CM (complete main)
Параметр Endianness формата : Big
Идентификатор кодека : A_AC3
Продолжительность : 1 ч. 4 м.
Вид битрейта : Постоянный
Битрейт : 192 Кбит/сек
Каналы : 2 канала
Расположение каналов : Front: L R
Частота : 48,0 КГц
Частота кадров : 31,250 кадров/сек (1536 spf)
Метод сжатия : С потерями
Размер потока : 89,0 Мбайт (3%)
Заголовок : Amedia
Язык : Russian
Default : Да
Forced : Нет

Аудио #2
Идентификатор : 3
Формат : AC-3
Формат/Информация : Audio Coding 3
Расширение режима : CM (complete main)
Параметр Endianness формата : Big
Идентификатор кодека : A_AC3
Продолжительность : 1 ч. 4 м.
Вид битрейта : Постоянный
Битрейт : 384 Кбит/сек
Каналы : 6 каналов
Расположение каналов : Front: L C R, Side: L R, LFE
Частота : 48,0 КГц
Частота кадров : 31,250 кадров/сек (1536 spf)
Метод сжатия : С потерями
Размер потока : 178 Мбайт (7%)
Язык : English
Default : Нет
Forced : Нет

Текст #1
Идентификатор : 4
Формат : UTF-8
Идентификатор кодека : S_TEXT/UTF8
Идентификатор кодека/Информация : UTF-8 Plain Text
Продолжительность : 1 ч. 0 м.
Битрейт : 82 бит/сек
ElementCount : 795
Размер потока : 36,9 Кбайт (0%)
Заголовок : Amedia
Язык : Russian
Default : Да
Forced : Нет

Текст #2
Идентификатор : 5
Формат : UTF-8
Идентификатор кодека : S_TEXT/UTF8
Идентификатор кодека/Информация : UTF-8 Plain Text
Продолжительность : 1 ч. 4 м.
Битрейт : 55 бит/сек
ElementCount : 943
Размер потока : 26,2 Кбайт (0%)
Язык : English
Default : Нет
Forced : Нет

Текст #3
Идентификатор : 6
Формат : UTF-8
Идентификатор кодека : S_TEXT/UTF8
Идентификатор кодека/Информация : UTF-8 Plain Text
Продолжительность : 1 ч. 4 м.
Битрейт : 65 бит/сек
ElementCount : 1119
Размер потока : 30,9 Кбайт (0%)
Заголовок : SDH
Язык : English
Default : Нет
Forced : Нет

Когда раздача ведётся путём добавления новых серий, при каждом добавлении создётся новый торрент. Чтобы начать докачку новой серии, пользователям необходимо сделать следующее:
(1) остановить скачивание,
(2) удалить старый торрент у себя из клиента (старые серии удалять не надо),
(3) скачать новый торрент и запустить его у себя в клиенте вместо старого, при этом указать клиенту путь в старую папку, куда и должно происходить скачивание новых серий.
Ваш клиент при этом должен произвести хеширование (проверку) старой папки (если не производит сам - помогите ему сделать это), и будет докачивать только те серии, которых у вас ещё нет. Старые серии при этом не удаляются, а продолжают раздаваться!
Eсли вы уже удалили старые серии, то предотвратить повторную закачку старых серий можно, отжав галочку в соответсвующих местах при запуске нового торрента. По возможности, желательно не удалять старые серии как можно дольше, чтобы релизёр не столько продолжал раздавать старые серии, а смог сконцентрироваться на новых.
pb.wtf



Скачать Траст через торрент https://d.radikal.ru/d09/1803/78/6192a28fab61.jpg Скачать фильм Траст через торрент бесплантно в хорошем качестве Описание: Жан Пол Гетти — один из богатейших людей в истории. У него больше денег, чем способен потратить один человек за несколько жизней. ... 10 10 3
Info! Серебряная раздача, засчитывается только 50% скачанного.
Торрент: Зарегистрирован [2018-07-04 11:12] · скачан: 19 раз
Статус: √ проверено
Размер: 21.68 GB
Как cкачать? Как скачать Траст через торрент | qTorrent

% Раздел Тема Автор DL S | L
Зарубежные сериалы [ 22.42 GB ] Траст / Trust / Сезон: 1 / Серии: 1-10 из 10 [2018 WEB-DL 1080p] MVO [NewStudio] bober100 Скачать
1 | 0
Зарубежные сериалы [ 18.72 GB ] Траст / Trust / Сезон: 1 / Серии: 1-10 из 10 [2018 WEB-DL 720p] MVO [NewStudio] bober100 Скачать
1 | 0
Зарубежные сериалы [ 54 GB ] Траст / Trust / Сезон: 1 / Серии: 1-10 из 10 [2018 WEB-DL 1080p] MVO [LostFilm] bober100 Скачать
1 | 0
Зарубежные сериалы [ 17.61 GB ] Траст / Trust / Сезон: 1 / Серии: 1-10 из 10 [2018 HDTVRip 720p] [MVO] killermax2013 Скачать
1 | 0
Зарубежные сериалы [ 6.42 GB ] Траст / Trust / Сезон: 1 / Серии: 1-10 из 10 [2018 WEB-DLRip] MVO [LostFilm] bober100 Скачать
1 | 0
Зарубежные сериалы [ 6.54 GB ] Траст / Trust / Сезон: 1 / Серии: 1-10 из 10 [2018 WEB-DLRip] MVO [NewStudio] bober100 Скачать
1 | 0
Зарубежные сериалы [ 6.17 GB ] Траст / Trust / Сезон: 1 / Серии: 1-10 из 10 [2018 HDTVRip] [MVO] killermax2013 Скачать
1 | 0

28-11-2019 20:33  

Отключить всю рекламу на сайте

    Дорогой пользователь! Огромная просьба, поблагодарите релизера, оцените раздачу и оставьте свои комментарий, если Вы скачали Траст через торрент бесплатно! Внесите свою лепту в развитие PiratBit!
    Комментировать посты могут только пользователи прошедшие не сложную регистрацию
    Показать сообщения:    

    Траст через торрент
    Скачать бесплатно Траст
    Траст скачать торрент
    Траст смотреть онлайн
    Cкачать фильм Траст бесплатно
    Траст скачать торрент в хорошем качестве
    Траст смотреть онлайн бесплатно в хорошем качестве


    Вы не можете начинать темы
    Вы не можете отвечать на сообщения
    Вы не можете редактировать свои сообщения
    Вы не можете удалять свои сообщения
    Вы не можете голосовать в опросах
    Вы не можете прикреплять файлы к сообщениям
    Вы можете скачивать файлы