Ссылка на приватное зеркало всего за 1$. Внимание количество ограничено!!!

iTunes

iTunes

iTunes

1

iTunes

iTunes

iTunes

WEBRip

iTunes

30
pack

$ от Little Big

ВАЖНО

!!Акция!!

Alien_RageХит недели

RePack

Resident Evil 21

ИГРА 18+

pack

RePack

jed

!!Акция!!

Alien_Rage

RePack

fifa19

RePack

Assassins Creed: Odyssey

RePack

NEED FOR SPEED™ PAYBACK

4 сезон

9 сезон

Бесстыжие 9 сезон

Все сериалы

все сериалы на PB.wtf

RePack

FAR CRY 5
  

Дробь / Birdshot (Михаил Ред) [2016, триллер, драма, детектив, WEB-DL 720p] MVO [КОЛОБОК] pb.wtf

Дробь через торрент pb.wtf

Размер: 4.07 GB | Добавлен: 2 года 4 мес. назад | Торрент скачан:50 раз
Скачать  

03-04-2018 14:54 Дробь Скачать торрент  

Дробь / BirdshotГод выпуска: 2016
Страна: Филиппины, Катар
Жанр: триллер, драма, детектив
Продолжительность: 01:57:28
Перевод: Любительский (многоголосый) | КОЛОБОК
Субтитры: отсутствуют

Режиссер: Михаил Ред

rating

В ролях:

Мэри Джой Апостол, Ку Акино, Джон Арсилья, Арнольд Рейес

Описание:

Дочь фермера обвиняют в отстреле редкого вида орлов. Вскоре выясняется, что за банальным правонарушением скрываются более серьёзные преступления.

Качество: WEB-DL 720p
Формат: MKV

Видео: 4571 Кбит/с, 1280x536
Аудио#1: AC3, 2 ch, 384 Кбит/с
скриншот  скриншот  скриншот  

Общее
Уникальный идентификатор : 206211295186016264222128915032984909621 (0x9B22D9CFCBBA23F09C03CF8B38FDF735)
Полное имя : D:\Birdshot.2016.Pk.WEB-DL.72Op_KOSHARA.mkv
Формат : Matroska
Версия формата : Version 2
Размер файла : 4,07 Гбайт
Продолжительность : 1 ч. 57 м.
Режим общего битрейта : Переменный
Общий поток : 4957 Кбит/сек
Дата кодирования : UTC 2018-04-02 14:52:27
Программа кодирования : mkvmerge v8.3.0 ('Over the Horizon') 64bit
Библиотека кодирования : libebml v1.3.1 + libmatroska v1.4.2

Видео
Идентификатор : 1
Формат : AVC
Формат/Информация : Advanced Video Codec
Профиль формата : High@L4.1
Параметр CABAC формата : Да
Параметр RefFrames формата : 4 кадра
Идентификатор кодека : V_MPEG4/ISO/AVC
Продолжительность : 1 ч. 57 м.
Вид битрейта : Переменный
Битрейт : 4571 Кбит/сек
Максимальный битрейт : 5000 Кбит/сек
Ширина : 1280 пикселей
Высота : 536 пикселей
Соотношение сторон : 2,40:1
Режим частоты кадров : Постоянный
Частота кадров : 23,976 (24000/1001) кадра/сек
Стандарт вещания : Component
Цветовое пространство : YUV
Субдискретизация насыщенности : 4:2:0
Битовая глубина : 8 бит
Тип развёртки : Прогрессивная
Бит/(Пиксели*Кадры) : 0.272
Размер потока : 3,67 Гбайт (90%)
Default : Да
Forced : Нет
Цветовой диапазон : Limited
Основные цвета : BT.709
Характеристики трансфера : BT.709
Коэффициенты матрицы : BT.709

Аудио
Идентификатор : 2
Формат : AC-3
Формат/Информация : Audio Coding 3
Расширение режима : CM (complete main)
Параметр Endianness формата : Big
Идентификатор кодека : A_AC3
Продолжительность : 1 ч. 57 м.
Вид битрейта : Постоянный
Битрейт : 384 Кбит/сек
Каналы : 2 канала
Расположение каналов : Front: L R
Частота : 48,0 КГц
Частота кадров : 31,250 кадров/сек (1536 spf)
Метод сжатия : С потерями
Размер потока : 323 Мбайт (8%)
Default : Да
Forced : Нет

pb.wtf



Скачать Дробь через торрент http://img12.lostpic.net/2018/04/03/00251f19a6cba6e74c7e966e51a6c111.jpg Скачать фильм Дробь через торрент бесплантно в хорошем качестве Описание: Дочь фермера обвиняют в отстреле редкого вида орлов. Вскоре выясняется, что за банальным правонарушением скрываются более ... 10 10 4
Торрент: Зарегистрирован [2018-04-03 14:54] · скачан: 50 раз
Статус: T временная
Размер: 4.07 GB
Как cкачать? Как скачать Дробь через торрент | qTorrent

% Раздел Тема Автор DL S | L
T Фильмы (мультфильмы) cо спонсором показа (Новинки AVI/MKV) [ 1.46 GB ] Дробь / Birdshot [2016 WEB-DLRip] MVO [КОЛОБОК] bober100 Скачать
1 | 0

28-11-2019 20:33  

Отключить всю рекламу на сайте

    Дорогой пользователь! Огромная просьба, поблагодарите релизера, оцените раздачу и оставьте свои комментарий, если Вы скачали Дробь через торрент бесплатно! Внесите свою лепту в развитие PiratBit!
    Комментировать посты могут только пользователи прошедшие не сложную регистрацию
    Показать сообщения:    

    Дробь через торрент
    Скачать бесплатно Дробь
    Дробь скачать торрент
    Дробь смотреть онлайн
    Cкачать фильм Дробь бесплатно
    Дробь скачать торрент в хорошем качестве
    Дробь смотреть онлайн бесплатно в хорошем качестве


    Вы не можете начинать темы
    Вы не можете отвечать на сообщения
    Вы не можете редактировать свои сообщения
    Вы не можете удалять свои сообщения
    Вы не можете голосовать в опросах
    Вы не можете прикреплять файлы к сообщениям
    Вы можете скачивать файлы