Ссылка на приватное зеркало всего за 1$. Внимание количество ограничено!!!

OK

1+1

iTunes

мы

OK

1

WEB-DLRip

Джокер

Пифагор

Ведьмак / The Witcher сериал

iTunes

ПШазам

ОК

Оно 2

iTunes

30
pack

Вам бонус

ВАЖНО

!!Акция!!

Alien_RageХит недели

RePack

Resident Evil 21

ИГРА 18+

pack

RePack

jed

RePack

fifa19

RePack

Assassins Creed: Odyssey

RePack

NEED FOR SPEED™ PAYBACK

4 сезон

9 сезон

Бесстыжие 9 сезон

Все сериалы

все сериалы на PB.wtf

RePack

FAR CRY 5
  

Обман акушерки / The Midwife's Deception (Летиция Клоусток) [2018, триллер, HDTVRip 720p] MVO ["Синема УС"] pb.wtf

Обман акушерки через торрент pb.wtf

Размер: 2.69 GB | Добавлен: 1 год 9 мес. назад | Торрент скачан:17 раз
Скачать  

03-04-2018 15:29 Обман акушерки Скачать торрент  

Обман акушерки / The Midwife's DeceptionГод выпуска: 2018
Страна: США
Жанр: триллер
Продолжительность: 01:26:06
Перевод: Любительский (многоголосый) | "Синема УС"
Субтитры: отсутствуют

Режиссер: Летиция Клоусток

rating

В ролях:

Кэти Савой, Пенелопа Митчелл, Билли Армстронг, Кэти Макклеллан, Никки Ли, Мэтт Кьюстон

Описание:

Сара находится на седьмом месяце беременности и мечтает о домашних рода. Случайно Сара сталкивается с акушеркой Джиной, которая практикует домашние роды и просит Джину быть своей акушеркой. Через некоторое время Сара понимает, что Джина странно себя ведет и опасна не только для ребенка, но и для всей ее семьи.

Качество: HDTVRip 720p
Формат: MKV

Видео: 4089 Кбит/с, 1280x720
Аудио#1: AC3, 2 ch, 384 Кбит/с
скриншот  скриншот  скриншот  

Общее
Уникальный идентификатор : 171262394060267918977593178708702270297 (0x80D7EFF356D66CF99EF42CA27DEA1359)
Полное имя : D:\the.midwifes.deception.2018.P.HDTV.72Op_KOSHARA.mkv
Формат : Matroska
Версия формата : Version 2
Размер файла : 2,69 Гбайт
Продолжительность : 1 ч. 26 м.
Режим общего битрейта : Переменный
Общий поток : 4475 Кбит/сек
Дата кодирования : UTC 2018-04-02 05:26:13
Программа кодирования : mkvmerge v8.3.0 ('Over the Horizon') 64bit
Библиотека кодирования : libebml v1.3.1 + libmatroska v1.4.2

Видео
Идентификатор : 1
Формат : AVC
Формат/Информация : Advanced Video Codec
Профиль формата : High@L4.1
Параметр CABAC формата : Да
Параметр RefFrames формата : 4 кадра
Идентификатор кодека : V_MPEG4/ISO/AVC
Продолжительность : 1 ч. 26 м.
Вид битрейта : Переменный
Битрейт : 4089 Кбит/сек
Максимальный битрейт : 4500 Кбит/сек
Ширина : 1280 пикселей
Высота : 720 пикселей
Соотношение сторон : 16:9
Режим частоты кадров : Постоянный
Частота кадров : 23,976 (24000/1001) кадра/сек
Стандарт вещания : Component
Цветовое пространство : YUV
Субдискретизация насыщенности : 4:2:0
Битовая глубина : 8 бит
Тип развёртки : Прогрессивная
Бит/(Пиксели*Кадры) : 0.181
Размер потока : 2,41 Гбайт (89%)
Default : Да
Forced : Нет
Цветовой диапазон : Limited
Основные цвета : BT.709
Характеристики трансфера : BT.709
Коэффициенты матрицы : BT.709

Аудио
Идентификатор : 2
Формат : AC-3
Формат/Информация : Audio Coding 3
Расширение режима : CM (complete main)
Параметр Endianness формата : Big
Идентификатор кодека : A_AC3
Продолжительность : 1 ч. 26 м.
Вид битрейта : Постоянный
Битрейт : 384 Кбит/сек
Каналы : 2 канала
Расположение каналов : Front: L R
Частота : 48,0 КГц
Частота кадров : 31,250 кадров/сек (1536 spf)
Метод сжатия : С потерями
Размер потока : 236 Мбайт (9%)
Default : Да
Forced : Нет

pb.wtf



Скачать Обман акушерки через торрент http://img12.lostpic.net/2018/04/03/058017f9c9f13259e0285f8601f95151.jpg Скачать фильм Обман акушерки через торрент бесплантно в хорошем качестве Описание: Сара находится на седьмом месяце беременности и мечтает о домашних рода. Случайно Сара сталкивается с акушеркой Джиной, которая ... 7.8 10 4
Торрент: Зарегистрирован [2018-04-03 15:29] · скачан: 17 раз
Статус: T временная
Размер: 2.69 GB
Как cкачать? Как скачать Обман акушерки через торрент | qTorrent

28-11-2019 20:33  

Отключить всю рекламу на сайте

    Дорогой пользователь! Огромная просьба, поблагодарите релизера, оцените раздачу и оставьте свои комментарий, если Вы скачали Обман акушерки через торрент бесплатно! Внесите свою лепту в развитие PiratBit!
    Комментировать посты могут только пользователи прошедшие не сложную регистрацию
    Показать сообщения:    

    Обман акушерки через торрент
    Скачать бесплатно Обман акушерки
    Обман акушерки скачать торрент
    Обман акушерки смотреть онлайн
    Cкачать фильм Обман акушерки бесплатно
    Обман акушерки скачать торрент в хорошем качестве
    Обман акушерки смотреть онлайн бесплатно в хорошем качестве


    Вы не можете начинать темы
    Вы не можете отвечать на сообщения
    Вы не можете редактировать свои сообщения
    Вы не можете удалять свои сообщения
    Вы не можете голосовать в опросах
    Вы не можете прикреплять файлы к сообщениям
    Вы можете скачивать файлы