Ссылка на приватное зеркало нашего сайта всего за 1$. Внимание количество ограничено!!!

2 сезон

iTunes

1 сезон

1

2 сезон

2 сезон

iTunes

1 сезон

RePack

30

Ultimate

ВАЖНО

ИГРА 18+

pack

RePack

MK11
pack

Забери бонус

RePack

jed

!!Акция!!

Alien_Rage

RePack

fifa19

RePack

Assassins Creed: Odyssey

RePack

NEED FOR SPEED™ PAYBACK

4 сезон

9 сезон

Бесстыжие 9 сезон

Все сериалы

все сериалы на PB.wtf

RePack

FAR CRY 5
  

Нераскрытое дело / Unsolved / Сезон: 1 / Серии: 1-10 из 10 (Энтони Хемингуэй, Кейт Вудс, Эрнест Р. Дикерсон) [2018, Драма, криминал, биография, WEBRip 720p] MVO [Jaskier] pb.wtf

Нераскрытое дело через торрент pb.wtf

Размер: 11.26 GB | Добавлен: 2 года 6 мес. назад | Торрент скачан:33 раза
Скачать  

03-04-2018 16:17 Нераскрытое дело Скачать торрент  

Нераскрытое дело / UnsolvedГод выпуска: 2018
Страна: США
Жанр: Драма, криминал, биография
Продолжительность: ~ 00:55:00 серия
Перевод: Профессиональный (многоголосый) | Jaskier
Субтитры: отсутствуют

Режиссер: Энтони Хемингуэй, Кейт Вудс, Эрнест Р. Дикерсон

rating

В ролях:

Джош Дюамель, Джимми Симпсон, Доминик Сантана, Скотт Майкл Кэмпбелл, Майкл Харни, Джейми МакШейн, Камилль Чен, Лори Фортье, Спенсер Гаррет, Мартин Дорсла

Описание:

Речь пойдёт о расследовании убийств легенд хип-хопа и непримиримых соперников: Тупака Шакура и Бигги Смолза. Оба трагических события произошли во время «войны побережий» — противостояния рэперов Западного и Восточного побережий США.

Качество: WEBRip 720p
Формат: MKV

Видео: 1280x720 (16:9) | X264 | ~3451 kbps | 23.976 fps
Аудио#1: AC3, 48,0 КГц, 6 ch, 384 kbps - [RUS]
Аудио#2: AC3, 48,0 КГц, 6 ch, 384 kbps - [ENG]
скриншот   скриншот   скриншот  

Общее
Уникальный идентификатор : 230027456563706263456024305335490432585 (0xAD0DAD39C4BD8371B545C8D5028DCE49)
Полное имя : D:\Unsolved Season 1 (WEBRip l 720p l Jaskier)\Unsolved.S01E01.WEBRip.720p.Jaskier.mkv
Формат : Matroska
Версия формата : Version 4 / Version 2
Размер файла : 1,65 Гбайт
Продолжительность : 55 м. 49 с.
Режим общего битрейта : Переменный
Общий поток : 4220 Кбит/сек
Дата кодирования : UTC 2018-04-03 15:34:34
Программа кодирования : mkvmerge v19.0.0 ('Brave Captain') 64-bit
Библиотека кодирования : libebml v1.3.5 + libmatroska v1.4.8

Видео
Идентификатор : 1
Формат : AVC
Формат/Информация : Advanced Video Codec
Профиль формата : High@L3.1
Параметр CABAC формата : Да
Параметр RefFrames формата : 5 кадров
Идентификатор кодека : V_MPEG4/ISO/AVC
Продолжительность : 55 м. 49 с.
Вид битрейта : Переменный
Битрейт : 3451 Кбит/сек
Максимальный битрейт : 4500 Кбит/сек
Ширина : 1280 пикселей
Высота : 720 пикселей
Соотношение сторон : 16:9
Режим частоты кадров : Постоянный
Частота кадров : 23,976 (24000/1001) кадра/сек
Цветовое пространство : YUV
Субдискретизация насыщенности : 4:2:0
Битовая глубина : 8 бит
Тип развёртки : Прогрессивная
Бит/(Пиксели*Кадры) : 0.152
Размер потока : 1,31 Гбайт (80%)
Язык : English
Default : Да
Forced : Нет
Цветовой диапазон : Limited
Основные цвета : BT.709
Характеристики трансфера : BT.709
Коэффициенты матрицы : BT.709

Аудио #1
Идентификатор : 2
Формат : AC-3
Формат/Информация : Audio Coding 3
Расширение режима : CM (complete main)
Параметр Endianness формата : Big
Идентификатор кодека : A_AC3
Продолжительность : 55 м. 49 с.
Вид битрейта : Постоянный
Битрейт : 384 Кбит/сек
Каналы : 6 каналов
Расположение каналов : Front: L C R, Side: L R, LFE
Частота : 48,0 КГц
Частота кадров : 31,250 кадров/сек (1536 spf)
Метод сжатия : С потерями
Размер потока : 153 Мбайт (9%)
Заголовок : Jaskier
Язык : Russian
Default : Да
Forced : Нет

Аудио #2
Идентификатор : 3
Формат : AC-3
Формат/Информация : Audio Coding 3
Расширение режима : CM (complete main)
Параметр Endianness формата : Big
Идентификатор кодека : A_AC3
Продолжительность : 55 м. 49 с.
Вид битрейта : Постоянный
Битрейт : 384 Кбит/сек
Каналы : 6 каналов
Расположение каналов : Front: L C R, Side: L R, LFE
Частота : 48,0 КГц
Частота кадров : 31,250 кадров/сек (1536 spf)
Метод сжатия : С потерями
Размер потока : 153 Мбайт (9%)
Язык : English
Default : Нет
Forced : Нет

Внимание! Раздача ведётся путём добавления новых серий; при каждом добавлении создаётся новый торрент. Чтобы начать докачку новой серии, пользователям необходимо сделать следующее:
(1) остановить скачивание,
(2) удалить старый торрент у себя из клиента (старые серии удалять не надо),
(3) скачать новый торрент и запустить его у себя в клиенте вместо старого, при этом указать клиенту путь в старую папку куда и должно происходить скачивание новых серий.
Ваш клиент при этом должен произвести хеширование (проверку) старой папки (если не производит сам - помогите ему сделать это), и будет докачивать только те серии которых у вас ещё нет. Старые серии при этом не удаляются, а продолжают раздаваться!
Eсли вы уже удалили старые серии, то предотвратить повторную закачку старых серий можно, отжав галочку в соответствующих местах при запуске нового торрента. По возможности, желательно не удалять старые серии как можно дольше чтобы релизёр не столько продолжал раздавать старые серии, а смог сконцентрироваться на новых.
pb.wtf



Скачать Нераскрытое дело через торрент http://i103.fastpic.ru/big/2018/0403/49/7b686fd80bf1668103f2f19d4123c149.jpg Скачать фильм Нераскрытое дело через торрент бесплантно в хорошем качестве Описание: Речь пойдёт о расследовании убийств легенд хип-хопа и непримиримых соперников: Тупака Шакура и Бигги Смолза. Оба трагических ... 9.6 10 7
Info! Серебряная раздача, засчитывается только 50% скачанного.
Торрент: Зарегистрирован [2018-05-24 08:41] · скачан: 33 раз
Статус: √ проверено
Размер: 11.26 GB
Как cкачать? Как скачать Нераскрытое дело через торрент | qTorrent

% Раздел Тема Автор DL S | L
Зарубежные сериалы [ 5.69 GB ] Нераскрытое дело / Unsolved / Сезон: 1 / Серии: 1-10 из 10 [2018 биография WEBRip] MVO [Jaskier] bober100 Скачать
1 | 0
Зарубежные сериалы [ 1.22 GB ] Нераскрытое дело / Unsolved / Сезон: 1 / Серии 1-2 из 10 [2018 Биографический фильм WEB-DLRip] [MVO] killermax2013 Скачать
1 | 0


Последний раз редактировалось: bober100 (2018-05-24 11:43), всего редактировалось 1 раз

28-11-2019 20:33  

Отключить всю рекламу на сайте

24-05-2018 11:15 Нераскрытое дело Скачать торрент  

А это тогда что?

https://pb.wtf/topic/284392/

Описание одно и тоже...pb.wtf



24-05-2018 11:44 Нераскрытое дело Скачать торрент  

kapnn писал(а):

А это тогда что?

https://pb.wtf/topic/284392/

Описание одно и тоже...

Заменил, Спасибо! pb.wtf



    Дорогой пользователь! Огромная просьба, поблагодарите релизера, оцените раздачу и оставьте свои комментарий, если Вы скачали Нераскрытое дело через торрент бесплатно! Внесите свою лепту в развитие PiratBit!
    Комментировать посты могут только пользователи прошедшие не сложную регистрацию
    Показать сообщения:    

    Нераскрытое дело через торрент
    Скачать бесплатно Нераскрытое дело
    Нераскрытое дело скачать торрент
    Нераскрытое дело смотреть онлайн
    Cкачать фильм Нераскрытое дело бесплатно
    Нераскрытое дело скачать торрент в хорошем качестве
    Нераскрытое дело смотреть онлайн бесплатно в хорошем качестве


    Вы не можете начинать темы
    Вы не можете отвечать на сообщения
    Вы не можете редактировать свои сообщения
    Вы не можете удалять свои сообщения
    Вы не можете голосовать в опросах
    Вы не можете прикреплять файлы к сообщениям
    Вы можете скачивать файлы