Всегда рабочее зеркало без VPN и Proxy просто перед .vidak.icu напиши любое слово или цифру, Пример http://xcix.vidak.icu

Лицензия

MVO

1 сезон

1

1 сезон

iTunes

1 сезон

13

1 сезон

Deluxe

pack

Рекомендуем

Repack

30

ВАЖНО

RePack

MK11

RePack

jed

RePack

fifa19

RePack

RDR2

RePack

NEED FOR SPEED™ PAYBACK

Кинопоиск HD

6 сезон

 Острые козырьки 6 сезон

Все сериалы

все сериалы на PB.wtf

RePack

FAR CRY 5
  
Magnet ссылка

Шрек , Шрек 2, Шрек 3, Шрек навсегда.(2001,2004,2007,2010) Тетралогия / Shrek, Shrek 2, Shrek 3,Shrek Forever After (2001,2004,2007,2010) (Майк Митчел) [2010 г., фэнтези, комедия, приключения, семейный, мультфильм, ..., BDRip (1080p)] pb.wtf

Шрек , Шрек 2, Шрек 3, Шрек навсегда. через торрент pb.wtf

Раздают: 4 [ 0 KB/s ]
Размер: 9.52 GB | Добавлен: 1 мес. 5 д. назад | Торрент скачан:60 раз
Смотреть онлайн Шрек , Шрек 2, Шрек 3, Шрек навсегда. | Скачать    Ребята, помогите собрать деньги на оплату серверов!!!

24-11-2010 07:55 Шрек , Шрек 2, Шрек 3, Шрек навсегда. Скачать торрент  

Шрек, Шрек 2, Шрек 3, Шрек навсегда.(2001,2004,2007,2010) Тетралогия / Shrek, Shrek 2, Shrek 3,Shrek Forever After (2001,2004,2007,2010) Год выпуска: 2010
Страна: США
Жанр: фэнтези, комедия, приключения, семейный, мультфильм, ...
Продолжительность: 90 мин.
Перевод: Профессиональный (полное дублирование)
Режиссер: Майк Митчел
Продюссер: Эндрю Адамсон, Тереза Чэн, Джина Шэй, ...
Сценарий: Джош Клауснер, Даррен Лемке

Бюджет: $165 000 000
Премьера в мире: 21 апреля 2010

PG
-Рекомендуется присутствие родителей
Мировой рейтинг IMDB 6.70 (12 864)


В ролях: Майк Майерс, Эдди Мёрфи, Кэмерон Диаз, Антонио Бандерас, Джули Эндрюс, Джон Хэмм, Джон Клиз, Крэйг Робинсон, Уолт Дорн, Джейн Ли

Описание: Все мультики о Шреке. Сжато качественно, сам смотрю на большом телевизоре 1920x1080. Обьем уменьшен для хранения на компе.
у кого возникнут проблемы при просмотре в Media Player Classic отключите Options - Internal Filters - H264/AVC(DXVA)
При включенном ускорении H264/AVC(DXVA) может воспроизводиться кубиками.










Доп. информация: у кого возникнут проблемы при просмотре в Media Player Classic отключите Options - Internal Filters - H264/AVC(DXVA)
Сэмпл:http://multi-up.com/381457
Качество: BDRip (1080p)
Формат: MKV
Видео кодек: H.26x
Аудио кодек: MP3
Видео: 3600 kbps 3-pass (H264), 1920x1080 ,23.976
Аудио: MP3 ,128 Kbps 2 channels
Релиз от: КХК(КиноХорошегоКачества)
Подробные технические данные под спойлером
Имя файла: Шрек 1.Shrek 1.3600 kbps (H264) 1920x1080.mkv
Размер файла: 2.35 GiB
Длительность: 1h 30mn
Общий битрейт: 3 728 Kbps
Видео: AVC, 1920x1080 (16/9), 23.976 fps, 3 600 Kbps (0.071 bit/pixel)
Аудио: MP3 , 44.1 KHz, 2 ch, 128 Kbps, CBR
Complete name : F:\video\Шрек\Шрек 1.Shrek 1.3600 kbps (H264) 1920x1080.mkv
Format : Matroska
File size : 2.35 GiB
Duration : 1h 30mn
Overall bit rate : 3 728 Kbps
Encoded date : UTC 2010-11-11 08:52:14
Writing application : mkvmerge v4.4.0 ('Die Wiederkehr') сборка от Oct 31 2010 21:52:48
Writing library : libebml v1.0.0 + libmatroska v1.0.0

Video
ID : 1
Format : AVC
Format/Info : Advanced Video Codec
Format profile : [email protected]
Format settings, CABAC : Yes
Format settings, ReFrames : 2 frames
Muxing mode : Header stripping
Codec ID : V_MPEG4/ISO/AVC
Duration : 1h 30mn
Bit rate : 3 600 Kbps
Width : 1 920 pixels
Height : 1 080 pixels
Display aspect ratio : 16:9
Frame rate mode : Constant
Frame rate : 23.976 fps
Color space : YUV
Chroma subsampling : 4:2:0
Bit depth : 8 bits
Scan type : Progressive
Bits/(Pixel*Frame) : 0.072
Stream size : 2.22 GiB (95%)
Writing library : x264 core 107 r1745 4785e8e
Encoding settings : cabac=1 / ref=1 / deblock=1:0:0 / analyse=0x3:0x113 / me=umh / subme=9 / psy=1 / psy_rd=1.00:0.00 / mixed_ref=0 / me_range=32 / chroma_me=1 / trellis=1 / 8x8dct=1 / cqm=0 / deadzone=21,11 / fast_pskip=1 / chroma_qp_offset=-2 / threads=12 / sliced_threads=0 / nr=0 / decimate=1 / interlaced=0 / constrained_intra=0 / bframes=9 / b_pyramid=0 / b_adapt=1 / b_bias=0 / direct=3 / weightb=1 / open_gop=0 / weightp=2 / keyint=250 / keyint_min=25 / scenecut=40 / intra_refresh=0 / rc_lookahead=40 / rc=2pass / mbtree=1 / bitrate=3600 / ratetol=1.0 / qcomp=0.60 / qpmin=10 / qpmax=51 / qpstep=4 / cplxblur=20.0 / qblur=0.5 / ip_ratio=1.40 / aq=1:1.00
Language : English

Audio
ID : 2
Format : MPEG Audio
Format version : Version 1
Format profile : Layer 3
Mode : Joint stereo
Muxing mode : Header stripping
Codec ID : A_MPEG/L3
Codec ID/Hint : MP3
Duration : 1h 30mn
Bit rate mode : Constant
Bit rate : 128 Kbps
Channel(s) : 2 channels
Sampling rate : 44.1 KHz
Stream size : 82.5 MiB (3%)
Writing library : LAME3.98.2
Имя файла: Шрек 2.Shrek2.3600 kbps (H264) 1920x1080.mkv
Размер файла: 2.41 GiB
Длительность: 1h 32mn
Общий битрейт: 3 729 Kbps
Видео: AVC, 1920x1080 (16/9), 23.976 fps, 3 600 Kbps (0.071 bit/pixel)
Аудио: MP3 , 44.1 KHz, 2 ch, 128 Kbps, CBR
Complete name : F:\video\Шрек\Шрек 2.Shrek2.3600 kbps (H264) 1920x1080.mkv
Format : Matroska
File size : 2.41 GiB
Duration : 1h 32mn
Overall bit rate : 3 729 Kbps
Encoded date : UTC 2010-11-10 06:44:08
Writing application : mkvmerge v4.4.0 ('Die Wiederkehr') сборка от Oct 31 2010 21:52:48
Writing library : libebml v1.0.0 + libmatroska v1.0.0

Video
ID : 1
Format : AVC
Format/Info : Advanced Video Codec
Format profile : [email protected]
Format settings, CABAC : Yes
Format settings, ReFrames : 2 frames
Format settings, GOP : N=15
Muxing mode : Header stripping
Codec ID : V_MPEG4/ISO/AVC
Duration : 1h 32mn
Bit rate : 3 600 Kbps
Width : 1 920 pixels
Height : 1 080 pixels
Display aspect ratio : 16:9
Frame rate mode : Constant
Frame rate : 23.976 fps
Color space : YUV
Chroma subsampling : 4:2:0
Bit depth : 8 bits
Scan type : Progressive
Bits/(Pixel*Frame) : 0.072
Stream size : 2.28 GiB (95%)
Writing library : x264 core 107 r1745 4785e8e
Encoding settings : cabac=1 / ref=1 / deblock=1:0:0 / analyse=0x3:0x113 / me=umh / subme=9 / psy=1 / psy_rd=1.00:0.00 / mixed_ref=0 / me_range=32 / chroma_me=1 / trellis=1 / 8x8dct=1 / cqm=0 / deadzone=21,11 / fast_pskip=1 / chroma_qp_offset=-2 / threads=12 / sliced_threads=0 / nr=0 / decimate=1 / interlaced=0 / constrained_intra=0 / bframes=9 / b_pyramid=0 / b_adapt=1 / b_bias=0 / direct=3 / weightb=1 / open_gop=0 / weightp=2 / keyint=250 / keyint_min=25 / scenecut=40 / intra_refresh=0 / rc_lookahead=40 / rc=2pass / mbtree=1 / bitrate=3600 / ratetol=1.0 / qcomp=0.60 / qpmin=10 / qpmax=51 / qpstep=4 / cplxblur=20.0 / qblur=0.5 / ip_ratio=1.40 / aq=1:1.00
Language : English

Audio
ID : 2
Format : MPEG Audio
Format version : Version 1
Format profile : Layer 3
Mode : Joint stereo
Mode extension : MS Stereo
Muxing mode : Header stripping
Codec ID : A_MPEG/L3
Codec ID/Hint : MP3
Duration : 1h 32mn
Bit rate mode : Constant
Bit rate : 128 Kbps
Channel(s) : 2 channels
Sampling rate : 44.1 KHz
Stream size : 84.6 MiB (3%)
Writing library : LAME3.97
Имя файла: Шрек 3.Shrek 3.3600 kbps (H264) 1920x1080.mkv
Размер файла: 2.41 GiB
Длительность: 1h 32mn
Общий битрейт: 3 729 Kbps
Видео: AVC, 1920x1080 (16/9), 23.976 fps, 3 600 Kbps (0.071 bit/pixel)
Аудио: MP3 , 48.0 KHz, 2 ch, 128 Kbps, CBR
Complete name : F:\video\Шрек\Шрек 3.Shrek 3.3600 kbps (H264) 1920x1080.mkv
Format : Matroska
File size : 2.41 GiB
Duration : 1h 32mn
Overall bit rate : 3 729 Kbps
Encoded date : UTC 2010-11-10 15:26:41
Writing application : mkvmerge v4.4.0 ('Die Wiederkehr') сборка от Oct 31 2010 21:52:48
Writing library : libebml v1.0.0 + libmatroska v1.0.0

Video
ID : 1
Format : AVC
Format/Info : Advanced Video Codec
Format profile : [email protected]
Format settings, CABAC : Yes
Format settings, ReFrames : 2 frames
Muxing mode : Header stripping
Codec ID : V_MPEG4/ISO/AVC
Duration : 1h 32mn
Bit rate : 3 600 Kbps
Width : 1 920 pixels
Height : 1 080 pixels
Display aspect ratio : 16:9
Frame rate mode : Constant
Frame rate : 23.976 fps
Color space : YUV
Chroma subsampling : 4:2:0
Bit depth : 8 bits
Scan type : Progressive
Bits/(Pixel*Frame) : 0.072
Stream size : 2.28 GiB (95%)
Writing library : x264 core 107 r1745 4785e8e
Encoding settings : cabac=1 / ref=1 / deblock=1:0:0 / analyse=0x3:0x113 / me=umh / subme=9 / psy=1 / psy_rd=1.00:0.00 / mixed_ref=0 / me_range=32 / chroma_me=1 / trellis=1 / 8x8dct=1 / cqm=0 / deadzone=21,11 / fast_pskip=1 / chroma_qp_offset=-2 / threads=12 / sliced_threads=0 / nr=0 / decimate=1 / interlaced=0 / constrained_intra=0 / bframes=9 / b_pyramid=0 / b_adapt=1 / b_bias=0 / direct=3 / weightb=1 / open_gop=0 / weightp=2 / keyint=250 / keyint_min=25 / scenecut=40 / intra_refresh=0 / rc_lookahead=40 / rc=2pass / mbtree=1 / bitrate=3600 / ratetol=1.0 / qcomp=0.60 / qpmin=10 / qpmax=51 / qpstep=4 / cplxblur=20.0 / qblur=0.5 / ip_ratio=1.40 / aq=1:1.00
Language : English

Audio
ID : 2
Format : MPEG Audio
Format version : Version 1
Format profile : Layer 3
Mode : Joint stereo
Mode extension : MS Stereo
Muxing mode : Header stripping
Codec ID : A_MPEG/L3
Codec ID/Hint : MP3
Duration : 1h 32mn
Bit rate mode : Constant
Bit rate : 128 Kbps
Channel(s) : 2 channels
Sampling rate : 48.0 KHz
Stream size : 84.9 MiB (3%)
Имя файла: Шрек навсегда.SHREK_FOREVER_AFTER.3600 kbps (H264) 1920x1080.mkv
Размер файла: 2.43 GiB
Длительность: 1h 33mn
Общий битрейт: 3 729 Kbps
Видео: AVC, 1920x1080 (16/9), 23.976 fps, 3 600 Kbps (0.071 bit/pixel)
Аудио: MP3 , 44.1 KHz, 2 ch, 128 Kbps, CBR
General
Complete name : F:\video\Шрек\Шрек навсегда.SHREK_FOREVER_AFTER.3600 kbps (H264) 1920x1080.mkv
Format : Matroska
File size : 2.43 GiB
Duration : 1h 33mn
Overall bit rate : 3 729 Kbps
Encoded date : UTC 2010-11-23 07:35:08
Writing application : mkvmerge v4.4.0 ('Die Wiederkehr') сборка от Oct 31 2010 21:52:48
Writing library : libebml v1.0.0 + libmatroska v1.0.0

Video
ID : 1
Format : AVC
Format/Info : Advanced Video Codec
Format profile : [email protected]
Format settings, CABAC : Yes
Format settings, ReFrames : 2 frames
Format settings, GOP : M=23, N=31
Muxing mode : Header stripping
Codec ID : V_MPEG4/ISO/AVC
Duration : 1h 33mn
Bit rate : 3 600 Kbps
Width : 1 920 pixels
Height : 1 080 pixels
Display aspect ratio : 16:9
Frame rate mode : Constant
Frame rate : 23.976 fps
Color space : YUV
Chroma subsampling : 4:2:0
Bit depth : 8 bits
Scan type : Progressive
Bits/(Pixel*Frame) : 0.072
Stream size : 2.30 GiB (95%)
Writing library : x264 core 107 r1772 c9dad9e
Encoding settings : cabac=1 / ref=1 / deblock=1:0:0 / analyse=0x3:0x113 / me=umh / subme=9 / psy=1 / psy_rd=1.00:0.00 / mixed_ref=0 / me_range=32 / chroma_me=1 / trellis=1 / 8x8dct=1 / cqm=0 / deadzone=21,11 / fast_pskip=1 / chroma_qp_offset=-2 / threads=12 / sliced_threads=0 / nr=0 / decimate=1 / interlaced=0 / constrained_intra=0 / bframes=9 / b_pyramid=0 / b_adapt=1 / b_bias=0 / direct=3 / weightb=1 / open_gop=0 / weightp=2 / keyint=250 / keyint_min=25 / scenecut=40 / intra_refresh=0 / rc_lookahead=40 / rc=2pass / mbtree=1 / bitrate=3600 / ratetol=1.0 / qcomp=0.60 / qpmin=10 / qpmax=51 / qpstep=4 / cplxblur=20.0 / qblur=0.5 / ip_ratio=1.40 / aq=1:1.00
Language : English

Audio
ID : 2
Format : MPEG Audio
Format version : Version 1
Format profile : Layer 3
Mode : Joint stereo
Mode extension : MS Stereo
Muxing mode : Header stripping
Codec ID : A_MPEG/L3
Codec ID/Hint : MP3
Duration : 1h 33mn
Bit rate mode : Constant
Bit rate : 128 Kbps
Channel(s) : 2 channels
Sampling rate : 44.1 KHz
Stream size : 85.3 MiB (3%)
Writing library : LAME3.98.2
Добавлены короткометрпжки "Шрек Страшилки.Scared Shrekless.2010" "Шрек. Триллер.Shrek. Thriller Night.2011" "Шрэк Рождество.Shrek the Halls.2007"pb.wtf



Скачать Шрек , Шрек 2, Шрек 3, Шрек навсегда. через торрент http://i1.imageban.ru/out/2010/11/18/dcb330266bd5d11ec2f3cb18ba5a2a80.jpg Скачать, смотреть онлайн Шрек , Шрек 2, Шрек 3, Шрек навсегда. бесплантно в хорошем качестве Описание: Все мультики о Шреке. Сжато качественно, сам смотрю на большом телевизоре 1920x1080. Обьем уменьшен для хранения на компе. у кого ... 10 10 7
Торрент: Зарегистрирован [2022-07-12 12:56] · скачан: 60 раз
Статус: √ проверено
Размер: 9.52 GB
Как cкачать? Как скачать Шрек , Шрек 2, Шрек 3, Шрек навсегда. через торрент | UTorrent



Последний раз редактировалось: roman_ke (2022-07-12 12:56), всего редактировалось 8 раз(а)

28-11-2019 20:33  

Отключить вcю реклaмy на сайте

24-11-2010 08:34 Шрек , Шрек 2, Шрек 3, Шрек навсегда. Скачать торрент  

Добавьте постер.
Исправьте скриншоты минимум 3, они должны соответствовать разрешению вашего видео.

-->Как сделать скриншот --

Исправите пишите мне в ЛСpb.wtf



24-11-2010 12:06 Шрек , Шрек 2, Шрек 3, Шрек навсегда. Скачать торрент  

Исправил :)pb.wtf



17-02-2011 07:05 Шрек , Шрек 2, Шрек 3, Шрек навсегда. Скачать торрент  

Фильмы хороши!! Автор молодец! :good2:pb.wtf



02-04-2011 17:30 Шрек , Шрек 2, Шрек 3, Шрек навсегда. Скачать торрент  

Спасибо! Посмотрим в хорош.качестве!pb.wtf



14-06-2011 02:56 Шрек , Шрек 2, Шрек 3, Шрек навсегда. Скачать торрент  

плз дайте скачать pb.wtf



    Дорогой пользователь! Огромная просьба, поблагодарите релизера, оцените раздачу и оставьте свои комментарий, если Вы скачали Шрек , Шрек 2, Шрек 3, Шрек навсегда. через торрент бесплатно!
    Комментировать посты могут только пользователи прошедшие не сложную регистрацию
    Показать сообщения:    

    Шрек , Шрек 2, Шрек 3, Шрек навсегда. через торрент
    Скачать бесплатно Шрек , Шрек 2, Шрек 3, Шрек навсегда.
    Шрек , Шрек 2, Шрек 3, Шрек навсегда. скачать торрент
    Шрек , Шрек 2, Шрек 3, Шрек навсегда. смотреть онлайн
    Cкачать фильм Шрек , Шрек 2, Шрек 3, Шрек навсегда. бесплатно
    Шрек , Шрек 2, Шрек 3, Шрек навсегда. скачать торрент в хорошем качестве
    Шрек , Шрек 2, Шрек 3, Шрек навсегда. смотреть онлайн бесплатно в хорошем качестве


    Вы не можете начинать темы
    Вы не можете отвечать на сообщения
    Вы не можете редактировать свои сообщения
    Вы не можете удалять свои сообщения
    Вы не можете голосовать в опросах
    Вы не можете прикреплять файлы к сообщениям
    Вы можете скачивать файлы