Ссылка на приватное зеркало всего за 1$. Внимание количество ограничено!!!

OK

1+1

iTunes

мы

OK

1

WEB-DLRip

Джокер

Пифагор

Ведьмак / The Witcher сериал

iTunes

ПШазам

ОК

Оно 2

iTunes

30
pack

Вам бонус

ВАЖНО

!!Акция!!

Alien_RageХит недели

RePack

Resident Evil 21

ИГРА 18+

pack

RePack

jed

RePack

fifa19

RePack

Assassins Creed: Odyssey

RePack

NEED FOR SPEED™ PAYBACK

4 сезон

9 сезон

Бесстыжие 9 сезон

Все сериалы

все сериалы на PB.wtf

RePack

FAR CRY 5
  

Сердца королей / Royal Hearts (Пэт Миллс) [2018, комедия, HDTVRip 720p] MVO ["Синема УС"] pb.wtf

Сердца королей через торрент pb.wtf

Размер: 2.7 GB | Добавлен: 1 год 9 мес. назад | Торрент скачан:57 раз
Скачать  

03-04-2018 16:33 Сердца королей Скачать торрент  

Сердца королей / Royal HeartsГод выпуска: 2018
Страна: Канада
Жанр: комедия
Продолжительность: 01:23:52
Перевод: Любительский (многоголосый) | "Синема УС"
Субтитры: отсутствуют

Режиссер: Пэт Миллс

rating

В ролях:

Джеймс Бролин, Синди Басби, Эндрю Купер, Глайнис Барбер, Оливия Нита, Локлен Нибор, Джереми Колтон, Ховард Кроссли, Мартин Уимбуш

Описание:

Келли и ее отец Хэнк узнают, что дальний родственник оставил им наследство в другой стране. По приезде они понимают, что унаследовали не только поместье, но и само королевство.

Качество: HDTVRip 720p
Формат: MKV

Видео: 4056 Кбит/с, 1280x716
Аудио#1: AC3, 2 ch, 384 Кбит/с
скриншот  скриншот  скриншот  

Общее
Уникальный идентификатор : 243084198121973501825598080466298841249 (0xB6E0504934EF94AD8E620AD3223BA8A1)
Полное имя : D:\Royal.hearts.2018.P.HDTV.72Op_KOSHARA.mkv
Формат : Matroska
Версия формата : Version 2
Размер файла : 2,70 Гбайт
Продолжительность : 1 ч. 26 м.
Режим общего битрейта : Переменный
Общий поток : 4501 Кбит/сек
Дата кодирования : UTC 2018-04-02 05:44:25
Программа кодирования : mkvmerge v8.3.0 ('Over the Horizon') 64bit
Библиотека кодирования : libebml v1.3.1 + libmatroska v1.4.2

Видео
Идентификатор : 1
Формат : AVC
Формат/Информация : Advanced Video Codec
Профиль формата : High@L4.1
Параметр CABAC формата : Да
Параметр RefFrames формата : 4 кадра
Идентификатор кодека : V_MPEG4/ISO/AVC
Продолжительность : 1 ч. 26 м.
Вид битрейта : Переменный
Битрейт : 4056 Кбит/сек
Максимальный битрейт : 4500 Кбит/сек
Ширина : 1280 пикселей
Высота : 716 пикселей
Соотношение сторон : 16:9
Режим частоты кадров : Постоянный
Частота кадров : 23,976 (24000/1001) кадра/сек
Стандарт вещания : Component
Цветовое пространство : YUV
Субдискретизация насыщенности : 4:2:0
Битовая глубина : 8 бит
Тип развёртки : Прогрессивная
Бит/(Пиксели*Кадры) : 0.183
Размер потока : 2,42 Гбайт (89%)
Default : Да
Forced : Нет
Цветовой диапазон : Limited
Основные цвета : BT.709
Характеристики трансфера : BT.709
Коэффициенты матрицы : BT.709

Аудио
Идентификатор : 2
Формат : AC-3
Формат/Информация : Audio Coding 3
Расширение режима : CM (complete main)
Параметр Endianness формата : Big
Идентификатор кодека : A_AC3
Продолжительность : 1 ч. 26 м.
Вид битрейта : Постоянный
Битрейт : 384 Кбит/сек
Каналы : 2 канала
Расположение каналов : Front: L R
Частота : 48,0 КГц
Частота кадров : 31,250 кадров/сек (1536 spf)
Метод сжатия : С потерями
Размер потока : 236 Мбайт (9%)
Default : Да
Forced : Нет

pb.wtf



Скачать Сердца королей через торрент http://img12.lostpic.net/2018/04/03/da9407c3f0a73eb69293b88eaff79a1c.jpg Скачать фильм Сердца королей через торрент бесплантно в хорошем качестве Описание: Келли и ее отец Хэнк узнают, что дальний родственник оставил им наследство в другой стране. По приезде они понимают, что ... 10 10 4
Торрент: Зарегистрирован [2018-04-03 16:33] · скачан: 57 раз
Статус: T временная
Размер: 2.7 GB
Как cкачать? Как скачать Сердца королей через торрент | qTorrent

% Раздел Тема Автор DL S | L
T Фильмы (мультфильмы) cо спонсором показа (Новинки AVI/MKV) [ 1.37 GB ] Сердца королей / Royal Hearts [2018 HDTVRip] MVO ["Синема УС"] bober100 Скачать
1 | 0


Последний раз редактировалось: bober100 (2018-04-04 07:26), всего редактировалось 2 раз(а)

28-11-2019 20:33  

Отключить всю рекламу на сайте

03-04-2018 19:28 Сердца королей Скачать торрент  

с описанием касякpb.wtf



03-04-2018 19:41 Сердца королей Скачать торрент  

DaEMON писал(а):

с описанием касяк

Заменилpb.wtf



    Дорогой пользователь! Огромная просьба, поблагодарите релизера, оцените раздачу и оставьте свои комментарий, если Вы скачали Сердца королей через торрент бесплатно! Внесите свою лепту в развитие PiratBit!
    Комментировать посты могут только пользователи прошедшие не сложную регистрацию
    Показать сообщения:    

    Сердца королей через торрент
    Скачать бесплатно Сердца королей
    Сердца королей скачать торрент
    Сердца королей смотреть онлайн
    Cкачать фильм Сердца королей бесплатно
    Сердца королей скачать торрент в хорошем качестве
    Сердца королей смотреть онлайн бесплатно в хорошем качестве


    Вы не можете начинать темы
    Вы не можете отвечать на сообщения
    Вы не можете редактировать свои сообщения
    Вы не можете удалять свои сообщения
    Вы не можете голосовать в опросах
    Вы не можете прикреплять файлы к сообщениям
    Вы можете скачивать файлы