Ссылка на приватное зеркало всего за 1$. Внимание количество ограничено!!!

OK

1+1

iTunes

мы

OK

1

WEB-DLRip

Джокер

Пифагор

Ведьмак / The Witcher сериал

iTunes

ПШазам

ОК

Оно 2

iTunes

30
pack

Вам бонус

ВАЖНО

!!Акция!!

Alien_RageХит недели

RePack

Resident Evil 21

ИГРА 18+

pack

RePack

jed

RePack

fifa19

RePack

Assassins Creed: Odyssey

RePack

NEED FOR SPEED™ PAYBACK

4 сезон

9 сезон

Бесстыжие 9 сезон

Все сериалы

все сериалы на PB.wtf

RePack

FAR CRY 5
  

Не разговаривайте с Ирен / Don't Talk to Irene (Пэт Миллс) [2017, комедия, WEB-DL 720p] MVO ["Синема УС"] pb.wtf

Не разговаривайте с Ирен через торрент pb.wtf

Размер: 2.6 GB | Добавлен: 1 год 9 мес. назад | Торрент скачан:33 раза
Скачать  

03-04-2018 17:55 Не разговаривайте с Ирен Скачать торрент  

Не разговаривайте с Ирен / Don't Talk to IreneГод выпуска: 2017
Страна: Канада
Жанр: комедия
Продолжительность: 01:23:52
Перевод: Любительский (многоголосый) | "Синема УС"
Субтитры: отсутствуют

Режиссер: Пэт Миллс

rating

В ролях:

Джина Дэвис, Анастасия Филлипс, Скотт Томпсон, Авива Монгилло, Райан Аллен, Алекс Стил, Брюс Грэй, Дебора Гровер, Элизабет Джинн ле Ру, Грэйс Манро

Описание:

Шестнадцатилетняя Ирен — самая толстая девочка в школе. У нее нет друзей, и над ней издеваются одноклассники. В свой выпускной год Ирен решает изменить ситуацию и стать чирлидершей. Но ее энтузиазм вызывает лишь повод для новых издевательств. В результате скандала Ирен и двух ее одноклассников — Робби и Сару — отстраняют от школы и назначают две недели общественных работ в доме престарелых. Именно здесь, среди одиноких стариков, Ирен находит настоящих друзей и поддержку.

Качество: WEB-DL 720p
Формат: MKV

Видео: 4056 Кбит/с, 1280x538
Аудио#1: AC3, 2 ch, 384 Кбит/с
скриншот  скриншот  скриншот  
Уникальный идентификатор : 224705671491529637771975719061175285770 (0xA90CBCF6BCD6E4C48684011F893A380A)
Полное имя : D:\Dont.Talk.To.Irene.2017.P.WEB-DL.72Op_KOSHARA.mkv
Формат : Matroska
Версия формата : Version 2
Размер файла : 2,60 Гбайт
Продолжительность : 1 ч. 23 м.
Режим общего битрейта : Переменный
Общий поток : 4441 Кбит/сек
Дата кодирования : UTC 2018-04-02 07:18:29
Программа кодирования : mkvmerge v8.3.0 ('Over the Horizon') 64bit
Библиотека кодирования : libebml v1.3.1 + libmatroska v1.4.2

Видео
Идентификатор : 1
Формат : AVC
Формат/Информация : Advanced Video Codec
Профиль формата : High@L4.1
Параметр CABAC формата : Да
Параметр RefFrames формата : 4 кадра
Идентификатор кодека : V_MPEG4/ISO/AVC
Продолжительность : 1 ч. 23 м.
Вид битрейта : Переменный
Битрейт : 4056 Кбит/сек
Максимальный битрейт : 4500 Кбит/сек
Ширина : 1280 пикселей
Высота : 538 пикселей
Соотношение сторон : 2,40:1
Режим частоты кадров : Постоянный
Частота кадров : 23,976 (24000/1001) кадра/сек
Стандарт вещания : Component
Цветовое пространство : YUV
Субдискретизация насыщенности : 4:2:0
Битовая глубина : 8 бит
Тип развёртки : Прогрессивная
Бит/(Пиксели*Кадры) : 0.240
Размер потока : 2,33 Гбайт (89%)
Default : Да
Forced : Нет
Цветовой диапазон : Limited
Основные цвета : BT.709
Характеристики трансфера : BT.709
Коэффициенты матрицы : BT.709

Аудио
Идентификатор : 2
Формат : AC-3
Формат/Информация : Audio Coding 3
Расширение режима : CM (complete main)
Параметр Endianness формата : Big
Идентификатор кодека : A_AC3
Продолжительность : 1 ч. 23 м.
Вид битрейта : Постоянный
Битрейт : 384 Кбит/сек
Каналы : 2 канала
Расположение каналов : Front: L R
Частота : 48,0 КГц
Частота кадров : 31,250 кадров/сек (1536 spf)
Метод сжатия : С потерями
Размер потока : 230 Мбайт (9%)
Default : Да
Forced : Нет
pb.wtf



Скачать Не разговаривайте с Ирен через торрент http://img12.lostpic.net/2018/04/03/d253245a035afa0a29591022181bc0b5.jpg Скачать фильм Не разговаривайте с Ирен через торрент бесплантно в хорошем качестве Описание: Шестнадцатилетняя Ирен — самая толстая девочка в школе. У нее нет друзей, и над ней издеваются одноклассники. В свой выпускной ... 10 10 2
Торрент: Зарегистрирован [2018-04-03 17:55] · скачан: 33 раз
Статус: T временная
Размер: 2.6 GB
Как cкачать? Как скачать Не разговаривайте с Ирен через торрент | qTorrent

28-11-2019 20:33  

Отключить всю рекламу на сайте

    Дорогой пользователь! Огромная просьба, поблагодарите релизера, оцените раздачу и оставьте свои комментарий, если Вы скачали Не разговаривайте с Ирен через торрент бесплатно! Внесите свою лепту в развитие PiratBit!
    Комментировать посты могут только пользователи прошедшие не сложную регистрацию
    Показать сообщения:    

    Не разговаривайте с Ирен через торрент
    Скачать бесплатно Не разговаривайте с Ирен
    Не разговаривайте с Ирен скачать торрент
    Не разговаривайте с Ирен смотреть онлайн
    Cкачать фильм Не разговаривайте с Ирен бесплатно
    Не разговаривайте с Ирен скачать торрент в хорошем качестве
    Не разговаривайте с Ирен смотреть онлайн бесплатно в хорошем качестве


    Вы не можете начинать темы
    Вы не можете отвечать на сообщения
    Вы не можете редактировать свои сообщения
    Вы не можете удалять свои сообщения
    Вы не можете голосовать в опросах
    Вы не можете прикреплять файлы к сообщениям
    Вы можете скачивать файлы