Ссылка на приватное зеркало нашего сайта всего за 1$. Внимание количество ограничено!!!

2 сезон

iTunes

1 сезон

1

2 сезон

2 сезон

iTunes

1 сезон

RePack

30

Новинка

ВАЖНО

ИГРА 18+

pack

RePack

MK11
pack

Забери бонус

RePack

jed

!!Акция!!

Alien_Rage

RePack

fifa19

RePack

Assassins Creed: Odyssey

RePack

NEED FOR SPEED™ PAYBACK

4 сезон

9 сезон

Бесстыжие 9 сезон

Все сериалы

все сериалы на PB.wtf

RePack

FAR CRY 5
  

Сумеречные охотники / Shadowhunters / Сезон: 3 / Серии: 1-22 из 22 (Майрзи Алмас, Тауния Маккирнан, Энди Волк) [2018, фэнтези, боевик, драма, WEB-DL 720p] MVO [NewStudio] pb.wtf

Сумеречные охотники через торрент pb.wtf

Размер: 32.35 GB | Добавлен: 1 год 5 мес. назад | Торрент скачан:4 раза
Скачать  

03-04-2018 19:52 Сумеречные охотники Скачать торрент  

Сумеречные охотники / Shadowhunters
Год выпуска: 2018
Страна: США
Жанр: фэнтези, боевик, драма
Продолжительность: ~ 00:44:00
Перевод: Профессиональный (многоголосый) | Newstudio
Субтитры: Русские

Режиссер: Майрзи Алмас, Тауния Маккирнан, Энди Волк

rating

В ролях:

Кэтрин МакНамара, Доминик Шервуд, Альберто Розенде, Мэттью Даддарио, Эмерод Тубия, Айзая Мустафа, Гарри Шам мл., Алан Ван Спрэнг, Джон Кор, Джоэль Лабелль, Максим Рой, Паулино Нюнс, Стефани Беннетт, Джордан Хадима, Дэвид Кастро, Шэйлин Гарнетт, Кейтлин Вонг, Кристина Кокс, Джейд Хассун, Никола Коррейя-Дамуд

Описание:

Невзрачная и ничем не примечательная девушка Клэри Фрэй в свой 18-й день рождения узнает, что она является наследницей древнего семейства Сумеречных Охотников — таинственного клана полулюдей-полуангелов, которые обороняют мир от демонических тварей. После похищения матери девушка вместе со своим другом Саймоном и сумеречным охотником Джейсом пытается ее спасти и… попадает в другую реальность.

Качество: WEB-DL 720p
Формат: MKV

Видео: MPEG-4 AVC, ~ 2315 Кбит/с, 1280x720
Аудио#1: Русский (AC3, 6 ch, 384 Кбит/с)
Аудио#2: английский (AC3, 6 ch, 384 Кбит/с)
скриншот  скриншот  скриншот  

Общее
Уникальный идентификатор : 228161596490142625784163794798708774487 (0xABA65338B3C0E8078ECFA20FEDF7D657)
Полное имя : D:\Shadowhunters (Season 03) NewStudio 720\Shadowhunters.s03e01.WEBDL.720p.NewStudio.TV.mkv
Формат : Matroska
Версия формата : Version 4 / Version 2
Размер файла : 927 Мбайт
Продолжительность : 43 м. 45 с.
Режим общего битрейта : Переменный
Общий поток : 2963 Кбит/сек
Дата кодирования : UTC 2018-03-25 00:28:58
Программа кодирования : mkvmerge v9.8.0 ('Kuglblids') 64bit
Библиотека кодирования : libebml v1.3.4 + libmatroska v1.4.5

Видео
Идентификатор : 1
Формат : AVC
Формат/Информация : Advanced Video Codec
Профиль формата : Main@L3.1
Параметр CABAC формата : Да
Параметр RefFrames формата : 3 кадра
Идентификатор кодека : V_MPEG4/ISO/AVC
Продолжительность : 43 м. 45 с.
Вид битрейта : Переменный
Битрейт : 2136 Кбит/сек
Номинальный битрейт : 2260 Кбит/сек
Максимальный битрейт : 3390 Кбит/сек
Ширина : 1280 пикселей
Высота : 720 пикселей
Соотношение сторон : 16:9
Режим частоты кадров : Постоянный
Частота кадров : 23,976 (24000/1001) кадра/сек
Цветовое пространство : YUV
Субдискретизация насыщенности : 4:2:0
Битовая глубина : 8 бит
Тип развёртки : Прогрессивная
Бит/(Пиксели*Кадры) : 0.097
Размер потока : 669 Мбайт (72%)
Библиотека кодирования : x264 core 148 r2715 7e75228
Настройки программы : cabac=1 / ref=3 / deblock=1:0:0 / analyse=0x1:0x111 / me=umh / subme=10 / psy=1 / psy_rd=1.00:0.00 / mixed_ref=1 / me_range=24 / chroma_me=1 / trellis=2 / 8x8dct=0 / cqm=0 / deadzone=21,11 / fast_pskip=1 / chroma_qp_offset=-2 / threads=8 / lookahead_threads=1 / sliced_threads=0 / nr=0 / decimate=1 / interlaced=0 / bluray_compat=0 / stitchable=1 / constrained_intra=0 / bframes=2 / b_pyramid=0 / b_adapt=2 / b_bias=0 / direct=3 / weightb=1 / open_gop=0 / weightp=2 / keyint=48 / keyint_min=25 / scenecut=0 / intra_refresh=0 / rc_lookahead=48 / rc=2pass / mbtree=1 / bitrate=2260 / ratetol=1.0 / qcomp=0.50 / qpmin=6 / qpmax=51 / qpstep=4 / cplxblur=20.0 / qblur=0.5 / vbv_maxrate=3390 / vbv_bufsize=4520 / nal_hrd=vbr / filler=0 / ip_ratio=1.40 / aq=1:1.00
Default : Да
Forced : Нет

Аудио #1
Идентификатор : 2
Формат : AC-3
Формат/Информация : Audio Coding 3
Расширение режима : CM (complete main)
Параметр Endianness формата : Big
Идентификатор кодека : A_AC3
Продолжительность : 43 м. 45 с.
Вид битрейта : Постоянный
Битрейт : 384 Кбит/сек
Каналы : 6 каналов
Расположение каналов : Front: L C R, Side: L R, LFE
Частота : 48,0 КГц
Частота кадров : 31,250 кадров/сек (1536 spf)
Метод сжатия : С потерями
Размер потока : 120 Мбайт (13%)
Заголовок : NewStudio.TV
Язык : Russian
Default : Да
Forced : Нет

Аудио #2
Идентификатор : 3
Формат : AC-3
Формат/Информация : Audio Coding 3
Расширение режима : CM (complete main)
Параметр Endianness формата : Big
Идентификатор кодека : A_AC3
Продолжительность : 43 м. 45 с.
Вид битрейта : Постоянный
Битрейт : 384 Кбит/сек
Каналы : 6 каналов
Расположение каналов : Front: L C R, Side: L R, LFE
Частота : 48,0 КГц
Частота кадров : 31,250 кадров/сек (1536 spf)
Метод сжатия : С потерями
Размер потока : 120 Мбайт (13%)
Заголовок : English
Язык : English
Default : Нет
Forced : Нет

Текст
Идентификатор : 4
Формат : ASS
Идентификатор кодека : S_TEXT/ASS
Идентификатор кодека/Информация : Advanced Sub Station Alpha
Метод сжатия : Без потерь
Язык : Russian
Default : Да
Forced : Да

Внимание! Раздача ведётся путём добавления новых серий; при каждом добавлении создаётся новый торрент. Чтобы начать докачку новой серии, пользователям необходимо сделать следующее:
(1) остановить скачивание,
(2) удалить старый торрент у себя из клиента (старые серии удалять не надо),
(3) скачать новый торрент и запустить его у себя в клиенте вместо старого, при этом указать клиенту путь в старую папку куда и должно происходить скачивание новых серий.
Ваш клиент при этом должен произвести хеширование (проверку) старой папки (если не производит сам - помогите ему сделать это), и будет докачивать только те серии которых у вас ещё нет. Старые серии при этом не удаляются, а продолжают раздаваться!
Eсли вы уже удалили старые серии, то предотвратить повторную закачку старых серий можно, отжав галочку в соответствующих местах при запуске нового торрента. По возможности, желательно не удалять старые серии как можно дольше чтобы релизёр не столько продолжал раздавать старые серии, а смог сконцентрироваться на новых.
pb.wtf



Скачать Сумеречные охотники через торрент http://pic1.kartinco.top/images/11/yczgn.jpg Скачать фильм Сумеречные охотники через торрент бесплантно в хорошем качестве Описание: Невзрачная и ничем не примечательная девушка Клэри Фрэй в свой 18-й день рождения узнает, что она является наследницей древнего ... 10 10 4
Торрент: Зарегистрирован [2019-05-26 01:46] · скачан: 4 раз
Статус: √ проверено
Размер: 32.35 GB
Как cкачать? Как скачать Сумеречные охотники через торрент | qTorrent

% Раздел Тема Автор DL S | L
Зарубежные сериалы [ 9.78 GB ] Сумеречные охотники / Shadowhunters / Сезон: 3 / Серии: 1-22 из 22 [2018 WEB-DLRip] MVO [NewStudio] bober100 Скачать
1 | 0
Зарубежные сериалы [ 10.92 GB ] Сумеречные охотники / Shadowhunters / Сезон: 3 / Серии: 1-22 из 22 [2018 WEB-DLRip] MVO [Jaskier] bober100 Скачать
1 | 0
Зарубежные сериалы [ 32.3 GB ] Сумеречные охотники / Shadowhunters / Сезон: 3 / Серии: 1-22 из 22 [2018 WEB-DL 720p] MVO [Jaskier] bober100 Скачать
1 | 0

28-11-2019 20:33  

Отключить всю рекламу на сайте

    Дорогой пользователь! Огромная просьба, поблагодарите релизера, оцените раздачу и оставьте свои комментарий, если Вы скачали Сумеречные охотники через торрент бесплатно! Внесите свою лепту в развитие PiratBit!
    Комментировать посты могут только пользователи прошедшие не сложную регистрацию
    Показать сообщения:    

    Сумеречные охотники через торрент
    Скачать бесплатно Сумеречные охотники
    Сумеречные охотники скачать торрент
    Сумеречные охотники смотреть онлайн
    Cкачать фильм Сумеречные охотники бесплатно
    Сумеречные охотники скачать торрент в хорошем качестве
    Сумеречные охотники смотреть онлайн бесплатно в хорошем качестве


    Вы не можете начинать темы
    Вы не можете отвечать на сообщения
    Вы не можете редактировать свои сообщения
    Вы не можете удалять свои сообщения
    Вы не можете голосовать в опросах
    Вы не можете прикреплять файлы к сообщениям
    Вы можете скачивать файлы