Доктор Стрэндж

Лицензия

Добыча

Дубляж

Уэнсдэй

1 сезон

Тор

Дубляж

В эфире

Дубляж

Там, где раки поют

MVO

Властелин колец

1 сезон

Deluxe

pack

Рекомендуем

30

Пиратка

ВАЖНО

ВАЖНО

Ghostwire

Пиратка

jed

RePack

nioh2

RePack

RDR2

RePack

NEED FOR SPEED™ PAYBACK

RePack

скачать торрент

Кинопоиск HD

Острые козырьки 6 сезон

6 сезон

FAR CRY 6

RePack

скачать торрент

Лицензия

скачать торрент

MVO

1

1 сезон

скачать торрент

1 сезон

скачать торрент

Лицензия

  

Тор: Рагнарёк / Thor: Ragnarok (Тайка Вайтити) [2017, фантастика, фэнтези, боевик, BDRemux 1080p] Дубляж + AVO [Живов]

Тор: Рагнарёк через торрент pb.wtf

Размер: 35.79 GB | Добавлен: 4 года 8 мес. назад | Торрент скачан:51 раз
Смотреть онлайн | Скачать   

04-04-2018 02:49 Тор: Рагнарёк Скачать торрент  

Тор: Рагнарёк / Thor: Ragnarok

Год выпуска: 2017
Страна: США
Жанр: фантастика, фэнтези, боевик, комедия, приключения
Продолжительность: 02:10:30
Перевод: Дублированный, авторский
Субтитры: Русские, английские
Режиссер: Тайка Вайтити
В ролях:

Крис Хемсворт (Thor), Том Хиддлстон (Loki), Кейт Бланшетт (Hela), Идрис Эльба (Heimdall), Джефф Голдблюм (Grandmaster), Тесса Томпсон (Valkyrie), Карл Урбан (Skurge), Марк Руффало (Bruce Banner / Hulk), Энтони Хопкинс (Odin), Бенедикт Камбербэтч (Doctor Strange), Тайка Вайтити (Korg, озвучка), Рэйчел Хаус (Topaz)
Описание:
Вернувшись в Асгард в поисках таинственного врага, ведущего охоту на Камни Бесконечности, Тор обнаруживает, что действия его брата Локи, захватившего трон Асгарда, привели к приближению наиболее страшного события - Рагнарёка. По легенде это ознаменует последнюю битву Асгарда, последствием которой станет его полное уничтожение. В попытке предотвратить это событие Тору предстоит прибегнуть к помощи своего товарища из Мстителей - Халка. Вместе им предстоит столкнуться лицом к лицу со злейшим врагом всех девяти миров - огненным демоном Суртуром, целью которого является исполнение пророчества о Рагнарёке и уничтожение девяти миров.
Рейтинг:

MPAA: PG-13 - Детям до 13 лет просмотр не желателен
Качество: BDRemux 1080p
Контейнер: MKV
Видео: MPEG-4 AVC, 23831 Кбит/с, 1920x1080, 23.976 Кадр/с
Аудио 1: Русский DTS-HD MA 7.1 5118 kbps - Дубляж (krat11)
Аудио 2: Русский AC3 5.1 640 kbps - Дубляж
Аудио 3: Русский DTS-HD MA 7.1 4777 kbps - Авторский (Живов)
Аудио 4: Английский DTS-HD MA 7.1 4891 kbps - Оригинал
Главы: Есть
Общее
Уникальный идентификатор : 231599192085637579652463537438720866028 (0xAE3C61C512F80322B50DA3F5B29D36EC)
Полное имя : D:\РЕМУКС!!!!!\Тор Рагнарёк. BDRemux.mkv
Формат : Matroska
Версия формата : Version 4 / Version 2
Размер файла : 35,8 Гбайт
Продолжительность : 2 ч. 10 м.
Режим общего битрейта : Переменный
Общий поток : 39,3 Мбит/сек
Название фильма : Тор Рагнарёк.BDRemux.thx:SPOMOPS
Дата кодирования : UTC 2018-04-03 14:46:59
Программа кодирования : mkvmerge v8.3.0 ('Over the Horizon') 64bit
Библиотека кодирования : libebml v1.3.1 + libmatroska v1.4.2

Видео
Идентификатор : 1
Формат : AVC
Формат/Информация : Advanced Video Codec
Профиль формата : [email protected]
Настройки формата : CABAC / 4 Ref Frames
Параметр CABAC формата : Да
Параметр RefFrames формата : 4 кадра
Идентификатор кодека : V_MPEG4/ISO/AVC
Продолжительность : 2 ч. 10 м.
Вид битрейта : Переменный
Битрейт : 23,8 Мбит/сек
Максимальный битрейт : 34,0 Мбит/сек
Ширина : 1920 пикселей
Высота : 1080 пикселей
Соотношение сторон : 16:9
Режим частоты кадров : Постоянный
Частота кадров : 23,976 (24000/1001) кадра/сек
Цветовое пространство : YUV
Субдискретизация насыщенности : 4:2:0
Битовая глубина : 8 бит
Тип развёртки : Прогрессивная
Бит/(Пиксели*Кадры) : 0.479
Размер потока : 21,7 Гбайт (61%)
Язык : English
Default : Да
Forced : Нет

Аудио #1
Идентификатор : 2
Формат : DTS
Формат/Информация : Digital Theater Systems
Профиль формата : MA / Core
Идентификатор кодека : A_DTS
Продолжительность : 2 ч. 10 м.
Вид битрейта : Переменный / Постоянный
Битрейт : 5118 Кбит/сек / 1509 Кбит/сек
Каналы : 8 каналов / 6 каналов
Расположение каналов : Front: L C R, Side: L R, Back: L R, LFE / Front: L C R, Side: L R, LFE
Частота : 48,0 КГц
Частота кадров : 93,750 кадра/сек (512 SPF)
Битовая глубина : 24 бит
Метод сжатия : Без потерь / Lossy
Размер потока : 4,67 Гбайт (13%)
Заголовок : Русский DTS-HD MA - Дубляж
Язык : Russian
Default : Да
Forced : Нет

Аудио #2
Идентификатор : 3
Формат : AC-3
Формат/Информация : Audio Coding 3
Идентификатор кодека : A_AC3
Продолжительность : 2 ч. 10 м.
Вид битрейта : Постоянный
Битрейт : 640 Кбит/сек
Каналы : 6 каналов
Расположение каналов : Front: L C R, Side: L R, LFE
Частота : 48,0 КГц
Частота кадров : 31,250 кадров/сек (1536 SPF)
Битовая глубина : 16 бит
Метод сжатия : С потерями
Размер потока : 597 Мбайт (2%)
Заголовок : Русский ас3 - Дубляж
Язык : Russian
ServiceKind/String : Complete Main
Default : Нет
Forced : Нет

Аудио #3
Идентификатор : 4
Формат : DTS
Формат/Информация : Digital Theater Systems
Профиль формата : MA / Core
Идентификатор кодека : A_DTS
Продолжительность : 2 ч. 10 м.
Вид битрейта : Переменный / Постоянный
Битрейт : 4777 Кбит/сек / 1509 Кбит/сек
Каналы : 8 каналов / 6 каналов
Расположение каналов : Front: L C R, Side: L R, Back: L R, LFE / Front: L C R, Side: L R, LFE
Частота : 48,0 КГц
Частота кадров : 93,750 кадра/сек (512 SPF)
Битовая глубина : 24 бит
Метод сжатия : Без потерь / Lossy
Размер потока : 4,35 Гбайт (12%)
Заголовок : Русский DTS-HD MA - АП (Живов)
Язык : Russian
Default : Нет
Forced : Нет

Аудио #4
Идентификатор : 5
Формат : DTS
Формат/Информация : Digital Theater Systems
Профиль формата : MA / Core
Идентификатор кодека : A_DTS
Продолжительность : 2 ч. 10 м.
Вид битрейта : Переменный / Постоянный
Битрейт : 4891 Кбит/сек / 1509 Кбит/сек
Каналы : 8 каналов / 6 каналов
Расположение каналов : Front: L C R, Side: L R, Back: L R, LFE / Front: L C R, Side: L R, LFE
Частота : 48,0 КГц
Частота кадров : 93,750 кадра/сек (512 SPF)
Битовая глубина : 24 бит
Метод сжатия : Без потерь / Lossy
Размер потока : 4,46 Гбайт (12%)
Заголовок : Английский DTS-HD MA - Оригинал
Язык : English
Default : Нет
Forced : Нет

Текст #1
Идентификатор : 6
Формат : UTF-8
Идентификатор кодека : S_TEXT/UTF8
Идентификатор кодека/Информация : UTF-8 Plain Text
Продолжительность : 1 ч. 56 м.
Битрейт : 0 бит/сек
ElementCount : 4
Размер потока : 216 байт (0%)
Заголовок : Русские - форс.
Язык : Russian
Default : Да
Forced : Нет

Текст #2
Идентификатор : 7
Формат : UTF-8
Идентификатор кодека : S_TEXT/UTF8
Идентификатор кодека/Информация : UTF-8 Plain Text
Продолжительность : 2 ч. 9 м.
Битрейт : 77 бит/сек
ElementCount : 1576
Размер потока : 73,5 Кбайт (0%)
Заголовок : Русские
Язык : Russian
Default : Нет
Forced : Нет

Текст #3
Идентификатор : 8
Формат : UTF-8
Идентификатор кодека : S_TEXT/UTF8
Идентификатор кодека/Информация : UTF-8 Plain Text
Продолжительность : 2 ч. 9 м.
Битрейт : 51 бит/сек
ElementCount : 1761
Размер потока : 48,9 Кбайт (0%)
Заголовок : Английские
Язык : English
Default : Нет
Forced : Нет

Текст #4
Идентификатор : 9
Формат : UTF-8
Идентификатор кодека : S_TEXT/UTF8
Идентификатор кодека/Информация : UTF-8 Plain Text
Продолжительность : 2 ч. 10 м.
Битрейт : 58 бит/сек
ElementCount : 2082
Размер потока : 55,4 Кбайт (0%)
Заголовок : Английские - SDH
Язык : English
Default : Нет
Forced : Нет

Меню
00:00:00.000 : en:The Great Prophecy
00:06:20.672 : en:The Tragedy Of Loki Of Asgard
00:14:11.642 : en:A Worthy Inclusion
00:22:12.873 : en:The Goddess Of Death
00:26:43.060 : en:"Are You A Fighter, Or Are You Food?"
00:31:29.721 : en:Heiress Apparent
00:35:03.935 : en:The Grandmaster
00:42:49.734 : en:The Eternal Flame
00:48:31.534 : en:The Contest Of Champions
00:59:38.784 : en:The Resistance
01:07:57.907 : en:Hotheaded Fools
01:17:30.604 : en:The Revengers
01:27:25.323 : en:"The Revolution Has Begun"
01:36:08.721 : en:Ready For War
01:42:35.733 : en:"Asgard Is Not A Place"
01:49:19.887 : en:"What Were You The God Of Again?"
01:54:57.599 : en:Ragnarok
02:00:37.522 : en:End Credits



Скачать Тор: Рагнарёк через торрент http://i100.fastpic.ru/big/2018/0404/08/1e0df6897242f98edc2866917e9bd708.png Скачать, смотреть онлайн Тор: Рагнарёк бесплантно в хорошем качестве Описание: Вернувшись в Асгард в поисках таинственного врага, ведущего охоту на Камни Бесконечности, Тор обнаруживает, что действия его ... 10 10 3
Торрент: Зарегистрирован [2018-04-04 02:49] · скачан: 51 раз
Статус: √ проверено
Размер: 35.79 GB
Как cкачать? Как скачать Тор: Рагнарёк через торрент | UTorrent

% Раздел Тема Автор DL S | L
Фильмы (HD 720p, 1080p) (48-60 fps) [ 5.45 GB ] Тор: Рагнарёк / Thor: Ragnarok | Дубляж | 720p / 60 FPS slaventi-69 Скачать
1 | 0
Ultra HD (UHD: 2K, 4K, 8K) [ 36.4 GB ] Тор: Рагнарёк / Thor: Ragnarok | DUB + 2xVO | 2160p sheker187 Скачать
1 | 0
Ultra HD (UHD: 2K, 4K, 8K) [ 16.74 GB ] Тор: Рагнарёк / Thor: Ragnarok | DUB + 2xVO | 2160p sheker187 Скачать
1 | 0
Ultra HD (UHD: 2K, 4K, 8K) [ 65.29 GB ] Тор: Рагнарёк / Thor: Ragnarok | DUB | 2160p sheker187 Скачать
2 | 0
Фильмы [HD 720p, 1080p] (Хороший звук DUB, MVO) [ 7.31 GB ] Тор: Рагнарёк / Thor: Ragnarok | Лицензия | 1080p, HEVC (10bit Мичман37 Скачать
1 | 0
Фильмы (Blu-ray, BD-Remux, HDDVD) [ 39.06 GB ] Тор: Рагнарёк / Thor: Ragnarok | Лицензия | 1080p sheker187 Скачать
1 | 0
Фильмы с авторской озвучкой [ 2.07 GB ] Тор: Рагнарёк / Thor: Ragnarok | AVO | BDRip killermax2013 Скачать
1 | 0

28-11-2019 20:33  


Отключить вcю реклaмy на сайте, в т.ч. и в плеере онлайн просмотра!

    Дорогой пользователь! Огромная просьба, поблагодарите релизера, оцените раздачу и оставьте свои комментарий, если Вы скачали Тор: Рагнарёк через торрент бесплатно!!
    Комментировать посты могут только пользователи прошедшие не сложную регистрацию
    Показать сообщения:    


    Тор: Рагнарёк через торрент
    Скачать бесплатно Тор: Рагнарёк
    Тор: Рагнарёк скачать торрент
    Тор: Рагнарёк смотреть онлайн
    Cкачать фильм Тор: Рагнарёк бесплатно
    Тор: Рагнарёк скачать торрент в хорошем качестве
    Тор: Рагнарёк смотреть онлайн бесплатно в хорошем качестве
    Вы не можете начинать темы
    Вы не можете отвечать на сообщения
    Вы не можете редактировать свои сообщения
    Вы не можете удалять свои сообщения
    Вы не можете голосовать в опросах
    Вы не можете прикреплять файлы к сообщениям
    Вы можете скачивать файлы
    Тор: Рагнарёк / Thor: Ragnarok [2017, фантастика, фэнтези, боевик, BDRemux 1080p] Дубляж + AVO [Живов] смотреть онлайн, скачать торрент picoco.icu