Ссылка на приватное зеркало всего за 1$. Внимание количество ограничено!!!

OK

1+1

iTunes

мы

OK

1

WEB-DLRip

Джокер

Пифагор

Ведьмак / The Witcher сериал

iTunes

ПШазам

ОК

Оно 2

iTunes

30
pack

Вам бонус

ВАЖНО

!!Акция!!

Alien_RageХит недели

RePack

Resident Evil 21

ИГРА 18+

pack

RePack

jed

RePack

fifa19

RePack

Assassins Creed: Odyssey

RePack

NEED FOR SPEED™ PAYBACK

4 сезон

9 сезон

Бесстыжие 9 сезон

Все сериалы

все сериалы на PB.wtf

RePack

FAR CRY 5
  

Земля птиц / Birdland (Питер Линч) [2018, криминал, детектив, WEB-DL 720p] MVO [AlphaProject] pb.wtf

Земля птиц через торрент pb.wtf

Размер: 3.17 GB | Добавлен: 1 год 9 мес. назад | Торрент скачан:48 раз
Скачать  

04-04-2018 03:46 Земля птиц Скачать торрент  

Земля птиц / BirdlandГод выпуска: 2018
Страна: Канада
Жанр: криминал, детектив
Продолжительность: 01:30:31
Перевод: Любительский (многоголосый) | AlphaProject
Субтитры: отсутствуют

Режиссер: Питер Линч

rating

В ролях:

Кэтлин Манро, Дэвид Алпей, Бенджамин Эйрс, Джорис Джарски, Кара Ги, Мелани Скрофано, Стивен МакХэтти, Эрл Паско, Мэл Дассен

Описание:

Чтобы разоблачить неверного мужа, бывший полицейский детектив решает воспользоваться оборудованием для полицейской слежки, но, незаметно для себя, превращается в вуайериста.

Качество: WEB-DL 720p
Формат: MKV

Видео: 4627 Кбит/с, 1280x532
Аудио#1: AC3, 2 ch, 384 Кбит/с
скриншот  скриншот  скриншот  

Общее
Уникальный идентификатор : 200295614428920836964403221384400054451 (0x96AF883B5CF7C94E8481A70DC611A8B3)
Полное имя : D:\Birdland.2018.Pa.WEB-DL.72Op_KOSHARA.mkv
Формат : Matroska
Версия формата : Version 2
Размер файла : 3,17 Гбайт
Продолжительность : 1 ч. 30 м.
Режим общего битрейта : Переменный
Общий поток : 5013 Кбит/сек
Дата кодирования : UTC 2018-04-03 10:13:52
Программа кодирования : mkvmerge v8.3.0 ('Over the Horizon') 64bit
Библиотека кодирования : libebml v1.3.1 + libmatroska v1.4.2

Видео
Идентификатор : 1
Формат : AVC
Формат/Информация : Advanced Video Codec
Профиль формата : High@L4.1
Параметр CABAC формата : Да
Параметр RefFrames формата : 4 кадра
Идентификатор кодека : V_MPEG4/ISO/AVC
Продолжительность : 1 ч. 30 м.
Вид битрейта : Переменный
Битрейт : 4627 Кбит/сек
Максимальный битрейт : 5200 Кбит/сек
Ширина : 1280 пикселей
Высота : 532 пикселя
Соотношение сторон : 2,40:1
Режим частоты кадров : Постоянный
Частота кадров : 23,976 (24000/1001) кадра/сек
Стандарт вещания : Component
Цветовое пространство : YUV
Субдискретизация насыщенности : 4:2:0
Битовая глубина : 8 бит
Тип развёртки : Прогрессивная
Бит/(Пиксели*Кадры) : 0.277
Размер потока : 2,86 Гбайт (90%)
Default : Да
Forced : Нет
Цветовой диапазон : Limited
Основные цвета : BT.709
Характеристики трансфера : BT.709
Коэффициенты матрицы : BT.709

Аудио
Идентификатор : 2
Формат : AC-3
Формат/Информация : Audio Coding 3
Расширение режима : CM (complete main)
Параметр Endianness формата : Big
Идентификатор кодека : A_AC3
Продолжительность : 1 ч. 30 м.
Вид битрейта : Постоянный
Битрейт : 384 Кбит/сек
Каналы : 2 канала
Расположение каналов : Front: L R
Частота : 48,0 КГц
Частота кадров : 31,250 кадров/сек (1536 spf)
Метод сжатия : С потерями
Размер потока : 249 Мбайт (8%)
Default : Да
Forced : Нет

pb.wtf



Скачать Земля птиц через торрент http://img12.lostpic.net/2018/04/04/153602273a7b9a27539ef033943e8f64.jpg Скачать фильм Земля птиц через торрент бесплантно в хорошем качестве Описание: Чтобы разоблачить неверного мужа, бывший полицейский детектив решает воспользоваться оборудованием для полицейской слежки, но, ... 7.8 10 4
Торрент: Зарегистрирован [2018-04-04 03:46] · скачан: 48 раз
Статус: T временная
Размер: 3.17 GB
Как cкачать? Как скачать Земля птиц через торрент | qTorrent

% Раздел Тема Автор DL S | L
T Фильмы (мультфильмы) cо спонсором показа (Новинки AVI/MKV) [ 1.37 GB ] Земля птиц / Birdland [2018 WEB-DLRip] MVO [AlphaProject] bober100 Скачать
1 | 0

28-11-2019 20:33  

Отключить всю рекламу на сайте

    Дорогой пользователь! Огромная просьба, поблагодарите релизера, оцените раздачу и оставьте свои комментарий, если Вы скачали Земля птиц через торрент бесплатно! Внесите свою лепту в развитие PiratBit!
    Комментировать посты могут только пользователи прошедшие не сложную регистрацию
    Показать сообщения:    

    Земля птиц через торрент
    Скачать бесплатно Земля птиц
    Земля птиц скачать торрент
    Земля птиц смотреть онлайн
    Cкачать фильм Земля птиц бесплатно
    Земля птиц скачать торрент в хорошем качестве
    Земля птиц смотреть онлайн бесплатно в хорошем качестве


    Вы не можете начинать темы
    Вы не можете отвечать на сообщения
    Вы не можете редактировать свои сообщения
    Вы не можете удалять свои сообщения
    Вы не можете голосовать в опросах
    Вы не можете прикреплять файлы к сообщениям
    Вы можете скачивать файлы