MEGA SALE -50% FORZA HORIZON 4 ULTIMATE+ВСЕ DLC+ОНЛАЙН всего за 599р. 299 руб. (супер цена). Внимание количество ограничено!!!

iTunes

1+1

iTunes

мы

iTunes

1

iTunes

Чернобыль

iTunes

Ральф против интернета

Лицензия

ПШазам

Лицензия

Игра престолов

Лицензия

30
pack

ВАЖНО

!!Акция!!

Alien_RageХит недели

RePack

Resident Evil 21

ИГРА 18+

pack

RePack

Metro:Exodus

!!Акция!!

Alien_Rage

RePack

fifa19

RePack

Assassins Creed: Odyssey

RePack

NEED FOR SPEED™ PAYBACK

3 сезон

9 сезон

Бесстыжие 9 сезон

Все сериалы

все сериалы на PB.wtf

RePack

FAR CRY 5
Ребята, катастрофически не хватает 7730р. для оплаты серверов за АВГУСТ (всвязи с блокировками трафик упал в 3 раза), 1-2р., выручайте.
  

Ходячие мертвецы / The Walking Dead / Сезон: 6 / Серии: 1-16 из 16 ( Грегори Никотеро, Дэвид Бойд, Джеффри Ф. Дженьюэри) [2015-2016, Мистика, триллер, ужасы, зомби, постапокалипсис, BDRemux 1080p] 2xMVO [LostFilm, FOX] pb.wtf

Ходячие мертвецы через торрент pb.wtf

Размер: 148.53 GB | Добавлен: 1 год 5 мес. назад | Торрент скачан:2 раза
Скачать  

04-04-2018 03:52 Ходячие мертвецы Скачать торрент  

Ходячие мертвецы / The Walking DeadThe Complete Sixth Season
Год выпуска: 2015-2016
Страна: США
Жанр: Мистика, триллер, ужасы, зомби, постапокалипсис
Продолжительность: 16 x ~ 00:43:00
Перевод: Профессиональный многоголосый [LostFilm, FOX]
Субтитры: Русские, английские
Режиссер: Грегори Никотеро, Дэвид Бойд, Джеффри Ф. Дженьюэри, Майкл Эдисон Сатраземис, Эрнест Р. Дикерсон, Сет Манн, Билл Джирхарт, Джулиус Рамсей
В ролях:

Эндрю Линкольн (Rick Grimes), Норман Ридус (Daryl Dixon), Мелисса Сюзанн МакБрайд (Carol Peletier), Чендлер Риггз (Carl Grimes), Лорен Кохэн (Maggie Greene), Данай Джекесай Гурира (Michonne), Стивен Ян (Glenn Rhee), Аланна Мастерсон (Tara Chambler), Сонекуа Мартин-Грин (Sasha Williams), Джош МакДермитт (Dr. Eugene Porter), Кристиан Серратос (Rosita Espinosa), Сет Гиллиам (Father Gabriel Stokes)
Описание:
Сериал рассказывает историю жизни семьи шерифа после того, как «зомби» - эпидемия апокалиптических масштабов захлестнула земной шар. Шериф Рик Граймс путешествует со своей семьей и небольшой группой выживших в поисках безопасного места для жизни. Но постоянный страх смерти каждый день приносит тяжелые потери, заставляя героев почувствовать глубины человеческой жестокости. Рик пытается спасти свою семью, и открывает для себя, что всепоглощающий страх тех, кто выжил, может быть опаснее бессмысленных мертвецов, бродящих по земле.
Рейтинг:

Качество: BDRemux 1080p
Формат: MKV
Видео: MPEG-4 AVC, ~ 26.4 Мбит/с, 1920x1080, 23.976 кадр/с
Аудио 1: Русский AC3, 6 ch, 384 Кбит/с | многоголосый закадровый, LostFilm
Аудио 2: Русский AC3, 2 ch, 192 Кбит/с | многоголосый закадровый, FOX
Аудио 3: Английский TrueHD, 8 ch, 3845 Кбит/с
01: First Time Again / Снова, как в первый раз
02: JSS / Выживи любой ценой
03: Thank You / Спасибо
04: Here's Not Here / Неважно, где
05: Now / Сейчас
06: Always Accountable / Всегда в ответе за свой выбор
07: Heads Up / Берегись!
08: Start to Finish / От начала и до конца
09: No Way Out / Выхода нет
10: The Next World / Новый мир
11: Knots Untie / Узлы развязаны
12: Not Tomorrow Yet / Завтра ещё не настало
13: The Same Boat / В одной лодке
14: Twice as Far / Вдвое дальше
15: East / Восток
16: Last Day on Earth / Последний день на Земле
Общее
Уникальный идентификатор : 220876929882371535616714756598392922670 (0xA62B596D97543AD4B91D8167C813A22E)
Полное имя : D:\The Walking Dead S06 Blu-Ray Remux\6x01 - First Time Again.mkv
Формат : Matroska
Версия формата : Version 4 / Version 2
Размер файла : 13,0 Гбайт
Продолжительность : 1 ч. 10 м.
Режим общего битрейта : Переменный
Общий поток : 26,4 Мбит/сек
Название фильма : The Walking Dead | Season 6 (2015-2016) | 01 - First Time Again (Release for HDCLUB)
Дата кодирования : UTC 2016-10-11 13:02:43
Программа кодирования : mkvmerge v9.4.2 ('So High') 64bit
Библиотека кодирования : libebml v1.3.4 + libmatroska v1.4.5

Видео
Идентификатор : 1
Формат : AVC
Формат/Информация : Advanced Video Codec
Профиль формата : High@L4.1
Параметр CABAC формата : Да
Параметр ReFrames формата : 4 кадра
Идентификатор кодека : V_MPEG4/ISO/AVC
Продолжительность : 1 ч. 4 м.
Вид битрейта : Переменный
Битрейт : 23,9 Мбит/сек
Максимальный битрейт : 28,0 Мбит/сек
Ширина : 1920 пикселей
Высота : 1080 пикселей
Соотношение сторон : 16:9
Режим частоты кадров : Постоянный
Частота кадров : 23,976 (24000/1001) кадра/сек
Цветовое пространство : YUV
Субдискретизация насыщенности : 4:2:0
Битовая глубина : 8 бит
Тип развёртки : Прогрессивная
Бит/(Пиксели*Кадры) : 0.481
Размер потока : 10,8 Гбайт (83%)
Язык : English
Default : Да
Forced : Нет

Аудио #1
Идентификатор : 2
Формат : AC-3
Формат/Информация : Audio Coding 3
Расширение режима : CM (complete main)
Параметр Endianness формата : Big
Идентификатор кодека : A_AC3
Продолжительность : 1 ч. 4 м.
Вид битрейта : Постоянный
Битрейт : 384 Кбит/сек
Каналы : 6 каналов
Расположение каналов : Front: L C R, Side: L R, LFE
Частота : 48,0 КГц
Частота кадров : 31,250 кадров/сек (1536 spf)
Метод сжатия : С потерями
Задержка видео : 16 мс.
Размер потока : 178 Мбайт (1%)
Заголовок : DD 5.1 @ 384 kbps (LostFilm)
Язык : Russian
Default : Да
Forced : Нет

Аудио #2
Идентификатор : 3
Формат : AC-3
Формат/Информация : Audio Coding 3
Расширение режима : CM (complete main)
Параметр Endianness формата : Big
Идентификатор кодека : A_AC3
Продолжительность : 1 ч. 4 м.
Вид битрейта : Постоянный
Битрейт : 192 Кбит/сек
Каналы : 2 канала
Расположение каналов : Front: L R
Частота : 48,0 КГц
Частота кадров : 31,250 кадров/сек (1536 spf)
Метод сжатия : С потерями
Задержка видео : 16 мс.
Размер потока : 88,8 Мбайт (1%)
Заголовок : DD 2.0 @ 192 kbps (FOX HD)
Язык : Russian
Default : Нет
Forced : Нет

Аудио #3
Идентификатор : 4
Формат : TrueHD
Идентификатор кодека : A_TRUEHD
Продолжительность : 1 ч. 10 м.
Вид битрейта : Переменный
Битрейт : 3845 Кбит/сек
Максимальный битрейт : 6333 Кбит/сек
Каналы : 8 каналов
Расположение каналов : Front: L C R, Side: L R, Back: L R, LFE
Частота : 48,0 КГц
Частота кадров : 1200,000 кадров/сек (40 spf)
Метод сжатия : Без потерь
Размер потока : 1,90 Гбайт (15%)
Язык : English
Default : Нет
Forced : Нет

Текст
Идентификатор : 5
Формат : PGS
Режим смешивания : zlib
Идентификатор кодека : S_HDMV/PGS
Идентификатор кодека/Информация : Picture based subtitle format used on BDs/HD-DVDs
Продолжительность : 1 ч. 4 м.
Битрейт : 10,4 Кбит/сек
Count of elements : 1542
Размер потока : 4,77 Мбайт (0%)
Язык : English
Default : Нет
Forced : Нет
pb.wtf



Скачать Ходячие мертвецы через торрент http://i101.fastpic.ru/big/2018/0404/05/73be91401e04a9b29f6f95015d6d9f05.png Скачать фильм Ходячие мертвецы через торрент бесплантно в хорошем качестве Описание: Сериал рассказывает историю жизни семьи шерифа после того, как «зомби» - эпидемия апокалиптических масштабов захлестнула земной ... 10 10 1
Торрент: Зарегистрирован [2018-04-04 03:52] · скачан: 2 раз
Статус: √ проверено
Размер: 148.53 GB
Как cкачать? Как скачать Ходячие мертвецы через торрент | qTorrent

% Раздел Тема Автор DL S | L
Ходячие мертвецы (The Walking Dead) [ 8.75 GB ] Ходячие мертвецы / The Walking Dead / Сезон: 6 / Серии 1-16 из 16 [2015 WEB-DLRip] MVO / LostFilm Anonymous Скачать
1 | 0
Ходячие мертвецы (The Walking Dead) [ 16.06 GB ] Ходячие мертвецы / The Walking Dead / Сезон: 6 / Серии 1-16 из 16 [2015 WEB-DLRip-AVC] MVO [BaibaKo] GEKADOL Скачать
1 | 0
Ходячие мертвецы (The Walking Dead) [ 8.5 GB ] Ходячие мертвецы / The Walking Dead / Сезон: 6 / Серии 1-16 из 16 [2015 WEB-DLRip] MVO [Fox Crime] GEKADOL Скачать
1 | 0
Ходячие мертвецы (The Walking Dead) [ 30.42 GB ] Ходячие мертвецы / The Walking Dead / Сезон: 6 / Серии 1-16 из 16 [2015 WEB-DL 1080p] MVO FOX + Original Messa-fan Скачать
1 | 0
Ходячие мертвецы (The Walking Dead) [ 24.17 GB ] Ходячие мертвецы / The Walking Dead / Сезон: 6 / Серии 1-16 из 16 [2015 WEB-DL 720p] MVO [Fox Crime] GEKADOL Скачать
1 | 0
Ходячие мертвецы (The Walking Dead) [ 8.47 GB ] Ходячие мертвецы / The Walking Dead / Сезон: 6 / Серия: 1-16 из 16 [2015-2016 HDTVRip-AVC] [Sub RUS] killermax2013 Скачать
1 | 0
Ходячие мертвецы (The Walking Dead) [ 7.21 GB ] Ходячие мертвецы / The Walking Dead / Сезон: 6 / Серии: 1-4 из 16 [2015 WEB-DLRip 720p] MVO 10oN Скачать
1 | 0


>> Регистрируемся здесь <<






Отзывы и комментарии о схеме читаем и пишем здесь: ---> Отзывы и комментарии о схеме

Новые благодарочки в телеграм довольных пользователей:
скриншот   скриншот   скриншот   скриншот   скриншот
    Дорогой пользователь! Огромная просьба, поблагодарите релизера, оцените раздачу и оставьте свои комментарий, если Вы скачали Ходячие мертвецы через торрент бесплатно! Внесите свою лепту в развитие PiratBit!
    Комментировать посты могут только пользователи прошедшие не сложную регистрацию
    Показать сообщения:    

    Ходячие мертвецы через торрент
    Скачать бесплатно Ходячие мертвецы
    Ходячие мертвецы скачать торрент
    Ходячие мертвецы смотреть онлайн
    Cкачать фильм Ходячие мертвецы бесплатно
    Ходячие мертвецы скачать торрент в хорошем качестве
    Ходячие мертвецы смотреть онлайн бесплатно в хорошем качестве


    Вы не можете начинать темы
    Вы не можете отвечать на сообщения
    Вы не можете редактировать свои сообщения
    Вы не можете удалять свои сообщения
    Вы не можете голосовать в опросах
    Вы не можете прикреплять файлы к сообщениям
    Вы можете скачивать файлы